<?xml version="1.0" standalone="no"?>
<!DOCTYPE svg PUBLIC "-//W3C//DTD SVG 1.1//EN" "http://www.w3.org/Graphics/SVG/1.1/DTD/svg11.dtd" >
<svg xmlns="http://www.w3.org/2000/svg">
<metadata>Generated by IcoMoon</metadata>
<defs>
<font id="themewar" horiz-adv-x="1024">
<font-face units-per-em="1024" ascent="960" descent="-64" />
<missing-glyph horiz-adv-x="1024" />
<glyph unicode="&#x20;" horiz-adv-x="512" d="" />
<glyph unicode="&#xe900;" glyph-name="abacus" horiz-adv-x="1152" d="M64 960c-35.34 0-64-28.66-64-64v-928c0-17.68 14.32-32 32-32h64c17.68 0 32 14.32 32 32v928c0 35.34-28.66 64-64 64zM1088 960c-35.34 0-64-28.66-64-64v-928c0-17.68 14.32-32 32-32h64c17.68 0 32 14.32 32 32v928c0 35.34-28.66 64-64 64zM928 896h-64c-17.68 0-32-14.32-32-32v-48h-320v48c0 17.68-14.32 32-32 32h-64c-17.68 0-32-14.32-32-32v-48h-64v48c0 17.68-14.32 32-32 32h-64c-17.68 0-32-14.32-32-32v-192c0-17.68 14.32-32 32-32h64c17.68 0 32 14.32 32 32v48h64v-48c0-17.68 14.32-32 32-32h64c17.68 0 32 14.32 32 32v48h320v-48c0-17.68 14.32-32 32-32h64c17.68 0 32 14.32 32 32v192c0 17.68-14.32 32-32 32zM704 544c0 17.68-14.32 32-32 32h-64c-17.68 0-32-14.32-32-32v-48h-64v48c0 17.68-14.32 32-32 32h-64c-17.68 0-32-14.32-32-32v-48h-64v48c0 17.68-14.32 32-32 32h-64c-17.68 0-32-14.32-32-32v-192c0-17.68 14.32-32 32-32h64c17.68 0 32 14.32 32 32v48h64v-48c0-17.68 14.32-32 32-32h64c17.68 0 32 14.32 32 32v48h64v-48c0-17.68 14.32-32 32-32h64c17.68 0 32 14.32 32 32v48h256v96h-256v48zM928 256h-64c-17.68 0-32-14.32-32-32v-48h-320v48c0 17.68-14.32 32-32 32h-64c-17.68 0-32-14.32-32-32v-48h-64v48c0 17.68-14.32 32-32 32h-64c-17.68 0-32-14.32-32-32v-192c0-17.68 14.32-32 32-32h64c17.68 0 32 14.32 32 32v48h64v-48c0-17.68 14.32-32 32-32h64c17.68 0 32 14.32 32 32v48h320v-48c0-17.68 14.32-32 32-32h64c17.68 0 32 14.32 32 32v192c0 17.68-14.32 32-32 32z" />
<glyph unicode="&#xe901;" glyph-name="acorn" horiz-adv-x="896" d="M350.22-15.1l97.78-48.9 97.78 48.9c175.42 87.7 286.22 266.98 286.22 463.1h-768c0-196.12 110.8-375.4 286.22-463.1zM704 832h-201c6.8 18.8 16.94 36.36 30.32 52.080 11.12 13.040 10.62 31.82-1.24 43.72l-22.7 22.64c-6.24 6.32-15.44 10.28-23.94 9.44-8.76-0.28-17-4.16-22.62-10.6-29.5-33.6-49.1-74.12-58.78-117.3h-212.040c-106.040 0-192-85.96-192-192v-64c0-35.34 28.66-64 64-64h768c35.34 0 64 28.66 64 64v64c0 106.060-85.96 192.020-192 192.020z" />
<glyph unicode="&#xe902;" glyph-name="ad" d="M315.040 416h73.92l-36.96 106.44-36.96-106.44zM704 448c-26.46 0-48-21.54-48-48s21.54-48 48-48 48 21.54 48 48-21.54 48-48 48zM928 832h-832c-53 0-96-43-96-96v-576c0-53 43-96 96-96h832c53 0 96 43 96 96v576c0 53-43 96-96 96zM501.16 256h-33.88c-13.62 0-25.76 8.64-30.24 21.5l-14.74 42.5h-140.58l-14.76-42.5c-4.478-12.623-16.317-21.5-30.228-21.5-0.004 0-0.008 0-0.012 0h-33.879c-22.020 0-37.46 21.7-30.24 42.5l107.4 309.26c6.717 18.928 24.47 32.24 45.332 32.24 0.003 0 0.006 0 0.009 0h53.319c0.002 0 0.005 0 0.008 0 20.868 0 38.624-13.322 45.228-31.924l0.104-0.336 107.38-309.24c7.22-20.8-8.22-42.5-30.22-42.5zM848 288c0-17.68-14.32-32-32-32h-32c-9.7 0-18.080 4.54-23.96 11.36-17.24-7.32-36.18-11.36-56.040-11.36-79.4 0-144 64.6-144 144s64.6 144 144 144c16.92 0 32.92-3.46 48-8.84v72.84c0 17.68 14.32 32 32 32h32c17.68 0 32-14.32 32-32v-320z" />
<glyph unicode="&#xe903;" glyph-name="address-book" horiz-adv-x="896" d="M872 640c13.2 0 24 10.8 24 24v80c0 13.2-10.8 24-24 24h-40v96c0 53-43 96-96 96h-640c-53 0-96-43-96-96v-832c0-53 43-96 96-96h640c53 0 96 43 96 96v96h40c13.2 0 24 10.8 24 24v80c0 13.2-10.8 24-24 24h-40v128h40c13.2 0 24 10.8 24 24v80c0 13.2-10.8 24-24 24h-40v128h40zM416 704c70.6 0 128-57.4 128-128s-57.4-128-128-128-128 57.4-128 128 57.4 128 128 128zM640 230.4c0-21.2-20-38.4-44.8-38.4h-358.4c-24.8 0-44.8 17.2-44.8 38.4v38.4c0 63.6 60.2 115.2 134.4 115.2h10c24.6-10.2 51.4-16 79.6-16s55.2 5.8 79.6 16h10c74.2 0 134.4-51.6 134.4-115.2v-38.4z" />
<glyph unicode="&#xe904;" glyph-name="address-card" horiz-adv-x="1152" d="M1056 896h-960c-53 0-96-43-96-96v-704c0-53 43-96 96-96h960c53 0 96 43 96 96v704c0 53-43 96-96 96zM352 704c70.6 0 128-57.4 128-128s-57.4-128-128-128-128 57.4-128 128 57.4 128 128 128zM576 230.4c0-21.2-20-38.4-44.8-38.4h-358.4c-24.8 0-44.8 17.2-44.8 38.4v38.4c0 63.6 60.2 115.2 134.4 115.2h10c24.6-10.2 51.4-16 79.6-16s55.2 5.8 79.6 16h10c74.2 0 134.4-51.6 134.4-115.2v-38.4zM1024 336c0-8.8-7.2-16-16-16h-288c-8.8 0-16 7.2-16 16v32c0 8.8 7.2 16 16 16h288c8.8 0 16-7.2 16-16v-32zM1024 464c0-8.8-7.2-16-16-16h-288c-8.8 0-16 7.2-16 16v32c0 8.8 7.2 16 16 16h288c8.8 0 16-7.2 16-16v-32zM1024 592c0-8.8-7.2-16-16-16h-288c-8.8 0-16 7.2-16 16v32c0 8.8 7.2 16 16 16h288c8.8 0 16-7.2 16-16v-32z" />
<glyph unicode="&#xe905;" glyph-name="adjust" d="M16 448c0-273.932 222.066-496 496-496s496 222.068 496 496-222.068 496-496 496-496-222.066-496-496zM512 80v736c203.41 0 368-164.622 368-368 0-203.41-164.622-368-368-368z" />
<glyph unicode="&#xe906;" glyph-name="air-freshener" horiz-adv-x="768" d="M757.88 317.18l-188.48 194.82h98.44c30.6 0 47.32 33.2 27.72 55.060l-226.66 253.020c6.86 13.22 11.1 28 11.1 43.92 0 53.020-42.98 96-96 96s-96-42.98-96-96c0-15.92 4.24-30.7 11.1-43.92l-226.66-253.020c-19.6-21.86-2.88-55.060 27.72-55.060h98.44l-188.48-194.82c-23.5-24.3-3.44-61.18 33.28-61.18h276.6v-64h-224c-17.68 0-32-14.32-32-32v-192c0-17.68 14.32-32 32-32h576c17.68 0 32 14.32 32 32v192c0 17.68-14.32 32-32 32h-224v64h276.6c36.72 0 56.78 36.88 33.28 61.18zM384 896.040c17.7 0 32.040-14.34 32.040-32.040 0-17.68-14.34-32.040-32.040-32.040s-32.040 14.36-32.040 32.040c0 17.7 14.34 32.040 32.040 32.040zM608 96v-64h-448v64h448z" />
<glyph unicode="&#xe907;" glyph-name="alarm-clock" d="M1024 768c0-55.6-23.6-105.6-61.4-140.6-61 112.8-164.6 202.2-292.6 243.8 34.2 53.4 94 88.8 162 88.8 106 0 192-86 192-192zM354 871.2c-34.2 53.4-94 88.8-162 88.8-106 0-192-86-192-192 0-55.6 23.6-105.6 61.4-140.6 61 112.8 164.6 202.2 292.6 243.8zM1000.6-40.6c-31.4-31.4-82-31.2-113.2 0l-84.2 84.2c-78.4-67-180-107.6-291.2-107.6s-213 40.6-291.2 107.6l-84.2-84.2c-31.4-31.4-82-31.2-113.2 0s-31.2 81.8 0 113.2l95.8 95.8c-35.2 64-55.2 137.4-55.2 215.6 0 247.4 200.6 448 448 448s448-200.6 448-448c0-78.2-20-151.6-55.2-215.6l95.8-95.8c31.2-31.2 31.2-82 0-113.2zM693.8 311.8l-109.8 80v242.8c0 13.2-10.8 24-24 24h-96c-13.2 0-24-10.8-24-24v-304c0-7.6 3.6-15 9.8-19.4l159.4-115.8c10.8-7.8 25.8-5.4 33.6 5.2l56.4 77.6c7.8 10.8 5.4 25.8-5.4 33.6z" />
<glyph unicode="&#xe908;" glyph-name="alicorn" horiz-adv-x="1280" d="M1263.96 896h-200.5c11.86 12.28 20.8 27.26 24.36 44.72 2.020 9.92-5.76 19.28-15.88 19.28h-239.94c-141.38 0-256-114.62-256-256h-0.16c-127.84 0-208.4 73.56-255.32 180.54-6.44 14.7-27.22 15.52-34.080 1-19.46-41.18-30.44-87.14-30.44-135.74 0-134.080 102.020-266.18 256-295.48v-6.34c-153.78 0-267.6 99.34-305.34 217.98-11.16-8.34-21.5-17.72-30.66-28.2v2.24c-97.060 0-176-78.94-176-176v-112c0-17.68 14.32-32 32-32h32c17.68 0 32 14.32 32 32v112c0 26.44 13.74 48.78 33.56 63.36-0.42-5.16-1.56-10.1-1.56-15.36 0-55.28 23.68-104.72 61.080-139.76l-51.44-137.2c-5.16-13.343-8.149-28.783-8.149-44.921 0-11.030 1.396-21.735 4.022-31.946l-0.193 0.887 49.7-198.82c3.581-14.031 16.106-24.24 31.017-24.24 0.001 0 0.002 0 0.003 0h131.92c20.82 0 36.1 19.56 31.040 39.76l-52.62 210.52 47.68 127.18 204.080-44.66v-300.8c0-17.68 14.32-32 32-32h128c17.68 0 32 14.32 32 32v355.56c39.48 40.38 64 95.5 64 156.44 0 0.44-0.14 0.84-0.16 1.28v204.94l32-14.22 37.8-75.4c14.9-29.74 50.1-43.1 80.98-30.74l65.1 26.040c23.783 9.693 40.24 32.636 40.24 59.422 0 0.020 0 0.041 0 0.061v-0.003l-0.1 142.020 184.84 73.3c13.18 8.76 6.96 29.3-8.88 29.3zM960 768c-17.68 0-32 14.32-32 32s14.32 32 32 32 32-14.32 32-32-14.32-32-32-32z" />
<glyph unicode="&#xe909;" glyph-name="align-center" horiz-adv-x="896" d="M704 872v-80c0-17.674-14.326-32-32-32h-448c-17.674 0-32 14.326-32 32v80c0 17.674 14.326 32 32 32h448c17.674 0 32-14.326 32-32zM32 504h832c17.674 0 32 14.326 32 32v80c0 17.674-14.326 32-32 32h-832c-17.674 0-32-14.326-32-32v-80c0-17.674 14.326-32 32-32zM32-8h832c17.674 0 32 14.326 32 32v80c0 17.674-14.326 32-32 32h-832c-17.674 0-32-14.326-32-32v-80c0-17.674 14.326-32 32-32zM672 392h-448c-17.674 0-32-14.326-32-32v-80c0-17.674 14.326-32 32-32h448c17.674 0 32 14.326 32 32v80c0 17.674-14.326 32-32 32z" />
<glyph unicode="&#xe90a;" glyph-name="align-justify" horiz-adv-x="896" d="M0 792v80c0 17.674 14.326 32 32 32h832c17.674 0 32-14.326 32-32v-80c0-17.674-14.326-32-32-32h-832c-17.674 0-32 14.326-32 32zM32 504h832c17.674 0 32 14.326 32 32v80c0 17.674-14.326 32-32 32h-832c-17.674 0-32-14.326-32-32v-80c0-17.674 14.326-32 32-32zM32-8h832c17.674 0 32 14.326 32 32v80c0 17.674-14.326 32-32 32h-832c-17.674 0-32-14.326-32-32v-80c0-17.674 14.326-32 32-32zM32 248h832c17.674 0 32 14.326 32 32v80c0 17.674-14.326 32-32 32h-832c-17.674 0-32-14.326-32-32v-80c0-17.674 14.326-32 32-32z" />
<glyph unicode="&#xe90b;" glyph-name="align-left" horiz-adv-x="896" d="M576 872v-80c0-17.674-14.326-32-32-32h-512c-17.674 0-32 14.326-32 32v80c0 17.674 14.326 32 32 32h512c17.674 0 32-14.326 32-32zM0 616v-80c0-17.674 14.326-32 32-32h832c17.674 0 32 14.326 32 32v80c0 17.674-14.326 32-32 32h-832c-17.674 0-32-14.326-32-32zM32-8h832c17.674 0 32 14.326 32 32v80c0 17.674-14.326 32-32 32h-832c-17.674 0-32-14.326-32-32v-80c0-17.674 14.326-32 32-32zM544 392h-512c-17.674 0-32-14.326-32-32v-80c0-17.674 14.326-32 32-32h512c17.674 0 32 14.326 32 32v80c0 17.674-14.326 32-32 32z" />
<glyph unicode="&#xe90c;" glyph-name="align-right" horiz-adv-x="896" d="M320 792v80c0 17.674 14.326 32 32 32h512c17.674 0 32-14.326 32-32v-80c0-17.674-14.326-32-32-32h-512c-17.674 0-32 14.326-32 32zM32 504h832c17.674 0 32 14.326 32 32v80c0 17.674-14.326 32-32 32h-832c-17.674 0-32-14.326-32-32v-80c0-17.674 14.326-32 32-32zM32-8h832c17.674 0 32 14.326 32 32v80c0 17.674-14.326 32-32 32h-832c-17.674 0-32-14.326-32-32v-80c0-17.674 14.326-32 32-32zM352 248h512c17.674 0 32 14.326 32 32v80c0 17.674-14.326 32-32 32h-512c-17.674 0-32-14.326-32-32v-80c0-17.674 14.326-32 32-32z" />
<glyph unicode="&#xe90d;" glyph-name="allergies" horiz-adv-x="896" d="M832 736c-35.2 0-64-28.8-64-64v-144c0-8.8-7.2-16-16-16h-32c-8.8 0-16 7.2-16 16v304c0 35.2-28.8 64-64 64s-64-28.8-64-64v-304c0-8.8-7.2-16-16-16h-32c-8.8 0-16 7.2-16 16v368c0 35.2-28.8 64-64 64s-64-28.8-64-64v-368c0-8.8-7.2-16-16-16h-32c-8.8 0-16 7.2-16 16v304c0 35.2-28.8 64-64 64s-64-28.8-64-64v-482l-47.2 65c-26 35.8-76 43.6-111.8 17.6s-43.6-76-17.6-111.8l251.2-345.4c18-24.8 47-39.6 77.6-39.6h395.2c44.6 0 83.2 30.6 93.4 74l53 225.4c6.4 27.4 9.8 56.6 10.2 84.6v352.2c0 35.2-28.8 64-64 64zM352 128c-17.6 0-32 14.4-32 32s14.4 32 32 32 32-14.4 32-32-14.4-32-32-32zM352 320c-17.6 0-32 14.4-32 32s14.4 32 32 32 32-14.4 32-32-14.4-32-32-32zM480 64c-17.6 0-32 14.4-32 32s14.4 32 32 32 32-14.4 32-32-14.4-32-32-32zM480 256c-17.6 0-32 14.4-32 32s14.4 32 32 32 32-14.4 32-32-14.4-32-32-32zM608 192c-17.6 0-32 14.4-32 32s14.4 32 32 32 32-14.4 32-32-14.4-32-32-32zM672 64c-17.6 0-32 14.4-32 32s14.4 32 32 32 32-14.4 32-32-14.4-32-32-32zM736 320c-17.6 0-32 14.4-32 32s14.4 32 32 32 32-14.4 32-32-14.4-32-32-32z" />
<glyph unicode="&#xe90e;" glyph-name="ambulance" horiz-adv-x="1280" d="M1248 256h-32v216.2c0 25.4-10.2 49.8-28.2 67.8l-199.8 199.8c-18 18-42.4 28.2-67.8 28.2h-88.2v96c0 53-43 96-96 96h-640c-53 0-96-43-96-96v-640c0-53 43-96 96-96h32c0-106 86-192 192-192s192 86 192 192h256c0-106 86-192 192-192s192 86 192 192h96c17.6 0 32 14.4 32 32v64c0 17.6-14.4 32-32 32zM320 32c-53 0-96 43-96 96s43 96 96 96 96-43 96-96-43-96-96-96zM608 528c0-8.8-7.2-16-16-16h-112v-112c0-8.8-7.2-16-16-16h-96c-8.8 0-16 7.2-16 16v112h-112c-8.8 0-16 7.2-16 16v96c0 8.8 7.2 16 16 16h112v112c0 8.8 7.2 16 16 16h96c8.8 0 16-7.2 16-16v-112h112c8.8 0 16-7.2 16-16v-96zM960 32c-53 0-96 43-96 96s43 96 96 96 96-43 96-96-43-96-96-96zM1120 448h-288v224h88.2l199.8-199.8v-24.2z" />
<glyph unicode="&#xe90f;" glyph-name="american-sign-language-interpreting" horiz-adv-x="1280" d="M581.094 581.922c-40.59 20.298-88.294 22.398-129.478 7.78 85.212 0 142.416-40.95 171.156-101.152 17.152-35.798-10.296-76.142-47.234-76.142 36.858 0 64.422-40.272 47.234-76.142-29.45-61.692-92.246-101.708-160.596-101.708-1.114 0-188.942 17.23-188.942 17.23l-132.812-66.694c-18.768-9.386-39.63-0.758-47.79 15.562l-88.912 177.85c-8.334 17.23-2.222 37.794 13.892 47.242l116.144 66.138 82.244 148.392c12.78 114.49 69.462 219.534 159.486 293.452 22.782 18.896 56.682 15.562 75.020-7.226 18.892-22.788 15.56-56.134-7.224-75.032-25.006-21.118-47.236-45.018-65.018-71.14 43.344 29.458 93.358 49.464 148.372 56.134 29.45 3.89 56.126-16.672 59.46-46.13 3.89-29.456-16.672-56.134-46.124-59.468-32.232-3.89-62.24-15.006-88.356-30.568 52.228 11.426 117.424 6.276 176.158-22.23 26.672-13.338 37.786-45.018 24.448-71.696-12.778-26.12-45.008-37.234-71.128-24.452zM526.636 442.978c-12.224 25.010-36.676 40.572-64.462 40.572-0.062 0-0.136 0-0.21 0-39.168 0-70.92-31.752-70.92-70.92 0-0.077 0-0.155 0-0.232v0.012c0-42.856 35.616-71.14 71.13-71.14 27.786 0 52.238 15.562 64.462 40.572 8.892 18.898 27.228 30.012 46.678 30.568-19.45 0.554-37.786 11.67-46.678 30.568zM1276.278 517.452c8.336-17.23 2.222-37.794-13.892-47.242l-116.142-66.138-82.244-148.392c-12.78-114.49-69.462-219.534-159.486-293.452-21.864-18.224-55.598-16.288-75.020 7.226-18.892 22.788-15.56 56.134 7.226 75.032 25.006 21.118 47.234 45.018 65.016 71.14-43.344-29.458-93.358-49.464-148.372-56.134-20.042-5.012-55.104 11.286-59.46 46.13-3.89 29.456 16.672 56.134 46.124 59.468 32.232 3.892 62.24 15.006 88.356 30.568-52.228-11.426-117.424-6.276-176.158 22.23-26.672 13.338-37.786 45.018-24.448 71.696 12.778 26.122 45.010 37.238 71.13 24.454 40.59-20.298 88.294-22.398 129.478-7.78-85.212 0-142.416 40.95-171.156 101.152-17.152 35.798 10.296 76.142 47.234 76.142-36.858 0-64.422 40.272-47.234 76.142 28.066 58.792 88.078 101.774 163.932 101.708l185.606-17.23 132.812 66.694c18.816 9.408 39.656 0.708 47.788-15.562l88.91-177.852zM817.824 554.688c-27.786 0-52.238-15.562-64.462-40.572-8.892-18.898-27.228-30.012-46.678-30.568 19.45-0.556 37.786-11.672 46.678-30.568 12.224-25.010 36.676-40.572 64.462-40.572 0.062 0 0.136 0 0.21 0 39.168 0 70.92 31.752 70.92 70.92 0 0.077 0 0.155 0 0.232v-0.012c0 42.858-35.616 71.14-71.13 71.14z" />
<glyph unicode="&#xe910;" glyph-name="analytics" horiz-adv-x="1152" d="M1021.24 774.74c10.82-4.22 22.46-6.74 34.76-6.74 53.020 0 96 42.98 96 96s-42.98 96-96 96-96-42.98-96-96c0-4.86 0.74-9.52 1.42-14.18l-190.68-152.54c-10.8 4.22-22.46 6.74-34.76 6.74s-23.94-2.52-34.76-6.74l-190.64 152.52c0.7 4.66 1.42 9.34 1.42 14.2 0 53.020-42.98 96-96 96s-96-42.98-96-96c0-8.54 1.48-16.68 3.56-24.56l-203-203c-7.88 2.080-16.020 3.56-24.56 3.56-53.020 0-96-42.98-96-96s42.98-96 96-96 96 42.98 96 96c0 8.54-1.48 16.68-3.56 24.56l203 203c7.88-2.080 16.020-3.56 24.56-3.56 12.3 0 23.94 2.52 34.76 6.74l190.68-152.54c-0.7-4.66-1.42-9.34-1.42-14.2 0-53.020 42.98-96 96-96s96 42.98 96 96c0 4.86-0.74 9.52-1.42 14.18l190.64 152.56zM800 320h-128c-17.68 0-32-14.32-32-32v-320c0-17.68 14.32-32 32-32h128c17.68 0 32 14.32 32 32v320c0 17.68-14.32 32-32 32zM1120 576h-128c-17.68 0-32-14.32-32-32v-576c0-17.68 14.32-32 32-32h128c17.68 0 32 14.32 32 32v576c0 17.68-14.32 32-32 32zM480 576h-128c-17.68 0-32-14.32-32-32v-576c0-17.68 14.32-32 32-32h128c17.68 0 32 14.32 32 32v576c0 17.68-14.32 32-32 32zM160 256h-128c-17.68 0-32-14.32-32-32v-256c0-17.68 14.32-32 32-32h128c17.68 0 32 14.32 32 32v256c0 17.68-14.32 32-32 32z" />
<glyph unicode="&#xe911;" glyph-name="anchor" horiz-adv-x="1152" d="M25.942 256h64.788c43.614-205.47 273.158-320 485.27-320 212.458 0 441.706 114.76 485.27 320h64.788c21.382 0 32.090 25.852 16.97 40.97l-134.058 134.058c-9.372 9.372-24.568 9.372-33.942 0l-134.058-134.058c-15.12-15.12-4.412-40.97 16.97-40.97h70.292c-40.58-108.634-169.926-173.176-288.234-188.030v380.030h104c13.254 0 24 10.746 24 24v80c0 13.254-10.746 24-24 24h-104v10.94c74.562 26.356 127.99 97.45 128 181.036 0.012 104.48-84.788 190.548-189.258 192.004-107.294 1.498-194.74-85.030-194.74-191.98 0-83.596 53.432-154.7 128-181.060v-10.94h-104c-13.254 0-24-10.746-24-24v-80c0-13.254 10.746-24 24-24h104v-380.030c-117.872 14.798-247.64 79.358-288.234 188.030h70.292c21.382 0 32.090 25.852 16.97 40.97l-134.058 134.058c-9.372 9.372-24.568 9.372-33.942 0l-134.058-134.058c-15.118-15.118-4.41-40.97 16.972-40.97zM576 832c35.29 0 64-28.71 64-64s-28.71-64-64-64-64 28.71-64 64 28.71 64 64 64z" />
<glyph unicode="&#xe912;" glyph-name="angel" horiz-adv-x="1152" d="M416 672c0-88.4 71.6-160 160-160s160 71.6 160 160-71.6 160-160 160-160-71.6-160-160zM369 757.2c8.2 19.8 19.8 37.8 33.2 54.2-11.6 8.2-18.2 15.8-18.2 20.6 0 16 68 64 192 64s192-48 192-64c0-4.6-6.6-12.2-18.2-20.6 13.2-16.6 24.8-34.4 33.2-54.2 30.4 21 49 46.8 49 74.8 0 70.6-114.6 128-256 128s-256-57.4-256-128c0-28 18.6-53.8 49-74.8zM1143.6 53.8l-76.4 157.2c-13.2 27-13.2 59.2 0 86.2 9.6 19.6 17.4 33.4 23.8 44.2 19 33.2 29 53 29 106.6 0 102.2-93.8 192-200.8 192-49.6 0-98-20.6-132.6-56.2l-145.4-146.8c-20.6 6.8-42.4 10.8-65 10.8s-44.2-4-65-10.8l-145.2 146.6c-35 36-83.4 56.4-133 56.4-107 0-201-89.8-201-192 0-53.6 10-73.4 29-106.4 6.4-11 14.2-24.6 23.8-44.2 13.2-27 13.2-59.2 0-86.2l-76.4-157.4c-12.6-25.8-11-55.6 4.2-79.8 15-23.8 40.4-38 68.4-38h990.2c27.8 0 53.4 14.2 68.4 38 15 24.2 16.6 54.2 4 79.8zM390.8 333.6l-150.8-301.6h-135.6l66.8 137.2c26 53.2 26 117 0 170.2-10.8 22.4-19.8 37.8-27 50.2-14.4 24.8-16.2 28-16.2 58.4 0 49.4 51 96 104.8 96 24.2 0 47-9.8 64.4-27.8l130.2-131.2c-14.4-15-27-32.2-36.6-51.4zM912 32l-150.8 301.6c-9.6 19.2-22.2 36.4-36.8 51.4l130.6 131.6c17.2 17.6 40 27.4 64.2 27.4 54 0 104.8-46.6 104.8-96 0-30.4-1.8-33.6-16.2-58.4-7.2-12.4-16-28-27-50.2-26-53.2-26-117 0-170.2l66.8-137.2h-135.6z" />
<glyph unicode="&#xe913;" glyph-name="angle-double-down" horiz-adv-x="640" d="M286 447.4l-272 272c-18.8 18.8-18.8 49.2 0 67.8l45.2 45.2c18.8 18.8 49.2 18.8 67.8 0l192.8-192.8 192.8 192.8c18.8 18.8 49.2 18.8 67.8 0l45.6-45c18.8-18.8 18.8-49.2 0-67.8l-272-272c-18.8-19-49.2-19-68-0.2zM354 63.4l272 272c18.8 18.8 18.8 49.2 0 67.8l-45.2 45.2c-18.8 18.8-49.2 18.8-67.8 0l-193-192.6-192.8 192.8c-18.8 18.8-49.2 18.8-67.8 0l-45.4-45.2c-18.8-18.8-18.8-49.2 0-67.8l272-272c18.8-19 49.2-19 68-0.2z" />
<glyph unicode="&#xe914;" glyph-name="angle-double-left" horiz-adv-x="896" d="M447.4 482l272 272c18.8 18.8 49.2 18.8 67.8 0l45.2-45.2c18.8-18.8 18.8-49.2 0-67.8l-192.6-193 192.8-192.8c18.8-18.8 18.8-49.2 0-67.8l-45.2-45.4c-18.8-18.8-49.2-18.8-67.8 0l-272 272c-19 18.8-19 49.2-0.2 68zM63.4 414l272-272c18.8-18.8 49.2-18.8 67.8 0l45.2 45.2c18.8 18.8 18.8 49.2 0 67.8l-192.6 193 192.8 192.8c18.8 18.8 18.8 49.2 0 67.8l-45.2 45.4c-18.8 18.8-49.2 18.8-67.8 0l-272-272c-19-18.8-19-49.2-0.2-68z" />
<glyph unicode="&#xe915;" glyph-name="angle-double-right" horiz-adv-x="896" d="M448.6 414l-272-272c-18.8-18.8-49.2-18.8-67.8 0l-45.2 45.2c-18.8 18.8-18.8 49.2 0 67.8l192.8 192.8-192.8 192.8c-18.8 18.8-18.8 49.2 0 67.8l45 45.6c18.8 18.8 49.2 18.8 67.8 0l272-272c19-18.8 19-49.2 0.2-68zM832.6 482l-272 272c-18.8 18.8-49.2 18.8-67.8 0l-45.2-45.2c-18.8-18.8-18.8-49.2 0-67.8l192.8-192.8-192.8-192.8c-18.8-18.8-18.8-49.2 0-67.8l45.2-45.2c18.8-18.8 49.2-18.8 67.8 0l272 272c18.8 18.4 18.8 48.8 0 67.6z" />
<glyph unicode="&#xe916;" glyph-name="angle-double-up" horiz-adv-x="640" d="M354 448.6l272-272c18.8-18.8 18.8-49.2 0-67.8l-45.2-45.2c-18.8-18.8-49.2-18.8-67.8 0l-193 192.6-192.8-192.8c-18.8-18.8-49.2-18.8-67.8 0l-45.4 45.2c-18.8 18.8-18.8 49.2 0 67.8l272 272c18.8 19 49.2 19 68 0.2zM286 832.6l-272-272c-18.8-18.8-18.8-49.2 0-67.8l45.2-45.2c18.8-18.8 49.2-18.8 67.8 0l192.8 192.8 192.8-192.8c18.8-18.8 49.2-18.8 67.8 0l45.2 45.2c18.8 18.8 18.8 49.2 0 67.8l-272 272c-18.4 18.8-48.8 18.8-67.6 0z" />
<glyph unicode="&#xe917;" glyph-name="angle-down" horiz-adv-x="640" d="M286 255.4l-272 272c-18.8 18.8-18.8 49.2 0 67.8l45.2 45.2c18.8 18.8 49.2 18.8 67.8 0l192.8-192.8 192.8 192.8c18.8 18.8 49.2 18.8 67.8 0l45.2-45.2c18.8-18.8 18.8-49.2 0-67.8l-272-272c-18.4-18.8-48.8-18.8-67.6 0z" />
<glyph unicode="&#xe918;" glyph-name="angle-left" horiz-adv-x="512" d="M63.4 482l272 272c18.8 18.8 49.2 18.8 67.8 0l45.2-45.2c18.8-18.8 18.8-49.2 0-67.8l-192.6-193 192.8-192.8c18.8-18.8 18.8-49.2 0-67.8l-45.2-45.4c-18.8-18.8-49.2-18.8-67.8 0l-272 272c-19 18.8-19 49.2-0.2 68z" />
<glyph unicode="&#xe919;" glyph-name="angle-right" horiz-adv-x="512" d="M448.6 414l-272-272c-18.8-18.8-49.2-18.8-67.8 0l-45.2 45.2c-18.8 18.8-18.8 49.2 0 67.8l192.8 192.8-192.8 192.8c-18.8 18.8-18.8 49.2 0 67.8l45 45.6c18.8 18.8 49.2 18.8 67.8 0l272-272c19-18.8 19-49.2 0.2-68z" />
<glyph unicode="&#xe91a;" glyph-name="angle-up" horiz-adv-x="640" d="M354 640.6l272-272c18.8-18.8 18.8-49.2 0-67.8l-45.2-45.2c-18.8-18.8-49.2-18.8-67.8 0l-193 192.6-192.8-192.8c-18.8-18.8-49.2-18.8-67.8 0l-45.4 45.2c-18.8 18.8-18.8 49.2 0 67.8l272 272c18.8 19 49.2 19 68 0.2z" />
<glyph unicode="&#xe91b;" glyph-name="angry" horiz-adv-x="992" d="M496 944c-274 0-496-222-496-496s222-496 496-496 496 222 496 496-222 496-496 496zM272 480c0 18.6 8.2 35 21 46.8l-62 18.6c-17 5-26.6 23-21.4 39.8 5 17 22.8 26.4 39.8 21.4l160-48c17-5 26.6-23 21.4-39.8-4.2-13.8-16.8-22.8-30.6-22.8-1 0-2.2 0.4-3.4 0.4 1.4-5.4 3.4-10.6 3.4-16.4 0-35.4-28.6-64-64-64s-64.2 28.6-64.2 64zM608 171.6c-55.6 66.8-168.4 66.8-224.2 0-27-32.6-76.4 8.4-49.2 41 40 48 98.8 75.6 161.2 75.6s121.2-27.6 161.2-75.6c27.6-33-22.2-73.2-49-41zM761.2 545.4l-62-18.6c12.6-11.6 21-28.2 21-46.8 0-35.4-28.6-64-64-64s-64 28.6-64 64c0 5.8 1.8 11.2 3.4 16.4-1.2-0.2-2.2-0.4-3.4-0.4-13.8 0-26.4 9-30.6 22.8-5 17 4.6 34.8 21.4 39.8l160 48c16.8 5 34.8-4.6 39.8-21.4 5-17-4.6-34.8-21.6-39.8z" />
<glyph unicode="&#xe91c;" glyph-name="ankh" horiz-adv-x="640" d="M592 448h-89.24c42.16 67.98 73.24 148.7 73.24 224 0 176.74-114.62 288-256 288s-256-111.26-256-288c0-75.3 31.080-156.020 73.24-224h-89.24c-26.5 0-48-21.48-48-48v-64c0-26.5 21.5-48 48-48h192v-304c0-26.5 21.5-48 48-48h64c26.5 0 48 21.5 48 48v304h192c26.5 0 48 21.5 48 48v64c0 26.52-21.5 48-48 48zM320 800c59.22 0 96-49.040 96-128 0-69.32-54.28-156.28-96-201.74-41.72 45.44-96 132.42-96 201.74 0 78.96 36.78 128 96 128z" />
<glyph unicode="&#xe91d;" glyph-name="apple-alt" horiz-adv-x="896" d="M701.7 702c51.94-9.34 94.54-37.34 127.84-84 29.3-41.34 49.28-93.34 59.92-156 9.34-57.34 8.64-114.66-2-172-15.98-94.66-47.94-174-95.88-238-57.28-77.34-129.18-116-215.74-116-21.32 0-44.6 6.66-69.92 20-17.32 10.66-36.62 16-57.94 16s-40.6-5.34-57.94-16c-25.32-13.34-48.6-20-69.92-20-86.56 0-158.46 38.66-215.74 116-47.94 64-79.9 143.34-95.88 238-10.64 57.34-11.34 114.66-2 172 10.64 62.66 30.62 114.66 59.92 156 33.3 46.66 75.9 74.66 127.84 84 31.96 5.34 75.9 0.66 131.84-14 47.94-13.34 88.56-29.34 121.86-48 33.3 18.66 73.92 34.66 121.86 48 55.96 14.66 99.92 19.34 131.88 14zM591.82 784c-18.64-17.34-43.3-30-73.92-38-21.32-6.66-44.6-10-69.92-10l-29.96 2c-2.66 18.66-2.66 40 0 64 5.34 48 20.64 84.66 45.94 110 18.64 17.34 43.3 30 73.92 38 21.32 6.66 44.6 10 69.92 10l29.96-2 2-30c0-25.34-3.34-48.66-9.98-70-7.98-30.66-20.62-55.34-37.96-74z" />
<glyph unicode="&#xe91e;" glyph-name="apple-crate" d="M636.4 576h319.58c10.52 78.94-10.3 205.3-107.64 222.78-36.26 6.060-103.8-12.36-144.98-35.38-34.020 19.040-84.9 33.96-122.3 35.58 3.64-4.42 7.66-8.34 11-13.16 41.68-60.3 51.48-144.6 44.34-209.82zM421.060 859.060c22.58 24.38 28.86 64.060 26.44 100.44-25.76 1.72-71.34 0.24-100.040-26.56-33.060-33.2-27.54-92.72-26.44-100.44 36.94-2.46 75.54 3.7 100.040 26.56zM804.44 859.060c22.58 24.38 28.86 64.060 26.44 100.44-25.76 1.72-71.34 0.24-100.040-26.56-33.060-33.2-27.54-92.72-26.44-100.44 36.94-2.46 75.54 3.7 100.040 26.56zM572.6 576c10.52 78.94-10.3 205.3-107.64 222.78-36.26 6.060-103.8-12.36-144.96-35.38-41.32 23.12-108.86 41.42-144.96 35.38-97.22-17.46-117.98-144.54-107.64-222.78h505.2zM992 512h-960c-17.68 0-32-14.32-32-32v-224h1024v224c0 17.68-14.32 32-32 32zM128 352c-17.68 0-32 14.32-32 32s14.32 32 32 32 32-14.32 32-32-14.32-32-32-32zM896 352c-17.68 0-32 14.32-32 32s14.32 32 32 32 32-14.32 32-32-14.32-32-32-32zM0-32c0-17.68 14.32-32 32-32h960c17.68 0 32 14.32 32 32v224h-1024v-224zM896 96c17.68 0 32-14.32 32-32s-14.32-32-32-32-32 14.32-32 32 14.32 32 32 32zM128 96c17.68 0 32-14.32 32-32s-14.32-32-32-32-32 14.32-32 32 14.32 32 32 32z" />
<glyph unicode="&#xe91f;" glyph-name="archive" d="M64 64c0-35.4 28.6-64 64-64h768c35.4 0 64 28.6 64 64v576h-896v-576zM384 488c0 13.2 10.8 24 24 24h208c13.2 0 24-10.8 24-24v-16c0-13.2-10.8-24-24-24h-208c-13.2 0-24 10.8-24 24v16zM960 896h-896c-35.4 0-64-28.6-64-64v-96c0-17.6 14.4-32 32-32h960c17.6 0 32 14.4 32 32v96c0 35.4-28.6 64-64 64z" />
<glyph unicode="&#xe920;" glyph-name="archway" horiz-adv-x="1152" d="M1120 64h-32v704h-1024v-704h-31.96c-17.68 0-32-14.32-32-32v-64c0-17.68 14.32-32 32-32h319.96c17.68 0 32 14.32 32 32v352c0 106.040 85.96 192 192 192s192-85.96 192-192l0.040-320v-32c0-17.68 14.32-32 32-32h319.96c17.68 0 32 14.32 32 32v64c0 17.68-14.32 32-32 32zM1120 960h-1088c-17.68 0-32-14.32-32-32v-64c0-17.68 14.32-32 32-32h1088c17.68 0 32 14.32 32 32v64c0 17.68-14.32 32-32 32z" />
<glyph unicode="&#xe921;" glyph-name="arrow-alt-circle-down" d="M1008 448c0-274-222-496-496-496s-496 222-496 496 222 496 496 496 496-222 496-496zM424 680v-232h-141.8c-21.4 0-32.2-26-17-41l229.8-228.6c9.4-9.4 24.4-9.4 33.8 0l229.8 228.6c15.2 15.2 4.4 41-17 41h-141.6v232c0 13.2-10.8 24-24 24h-128c-13.2 0-24-10.8-24-24z" />
<glyph unicode="&#xe922;" glyph-name="arrow-alt-circle-left" d="M512-48c-274 0-496 222-496 496s222 496 496 496 496-222 496-496-222-496-496-496zM744 536h-232v141.8c0 21.4-26 32.2-41 17l-228.6-229.8c-9.4-9.4-9.4-24.4 0-33.8l228.6-229.8c15.2-15.2 41-4.4 41 17v141.6h232c13.2 0 24 10.8 24 24v128c0 13.2-10.8 24-24 24z" />
<glyph unicode="&#xe923;" glyph-name="arrow-alt-circle-right" d="M512 944c274 0 496-222 496-496s-222-496-496-496-496 222-496 496 222 496 496 496zM280 360h232v-141.8c0-21.4 26-32.2 41-17l228.6 229.8c9.4 9.4 9.4 24.4 0 33.8l-228.6 230c-15.2 15.2-41 4.4-41-17v-141.8h-232c-13.2 0-24-10.8-24-24v-128c0-13.2 10.8-24 24-24z" />
<glyph unicode="&#xe924;" glyph-name="arrow-alt-circle-up" d="M16 448c0 274 222 496 496 496s496-222 496-496-222-496-496-496-496 222-496 496zM600 216v232h141.8c21.4 0 32.2 26 17 41l-229.8 228.6c-9.4 9.4-24.4 9.4-33.8 0l-230-228.6c-15.2-15.2-4.4-41 17-41h141.8v-232c0-13.2 10.8-24 24-24h128c13.2 0 24 10.8 24 24z" />
<glyph unicode="&#xe925;" glyph-name="arrow-alt-down" horiz-adv-x="896" d="M352 896h192c26.6 0 48-21.4 48-48v-400h207.6c42.8 0 64.2-51.6 34-82l-351.6-352c-18.8-18.8-49.2-18.8-68 0l-351.4 352c-30.2 30.2-8.8 82 34 82h207.4v400c0 26.6 21.4 48 48 48z" />
<glyph unicode="&#xe926;" glyph-name="arrow-alt-from-bottom" horiz-adv-x="768" d="M720 0h-672c-26.6 0-48 21.4-48 48v48c0 26.6 21.4 48 48 48h672c26.6 0 48-21.4 48-48v-48c0-26.6-21.4-48-48-48zM512 240v272h175.4c35.6 0 53.4 43 28.2 68.2l-304.2 304.4c-15 15-39.6 15-54.6 0l-304.6-304.4c-25.2-25.2-7.2-68.2 28.4-68.2h175.4v-272c0-26.6 21.4-48 48-48h160c26.6 0 48 21.4 48 48z" />
<glyph unicode="&#xe927;" glyph-name="arrow-alt-from-left" horiz-adv-x="896" d="M0 112v672c0 26.6 21.4 48 48 48h48c26.6 0 48-21.4 48-48v-672c0-26.6-21.4-48-48-48h-48c-26.6 0-48 21.4-48 48zM240 320h272v-175.4c0-35.6 43-53.4 68.2-28.2l304.4 304.4c15 15 15 39.6 0 54.6l-304.4 304.4c-25.2 25.2-68.2 7.4-68.2-28.2v-175.6h-272c-26.6 0-48-21.4-48-48v-160c0-26.6 21.4-48 48-48z" />
<glyph unicode="&#xe928;" glyph-name="arrow-alt-from-right" horiz-adv-x="896" d="M896 784v-672c0-26.6-21.4-48-48-48h-48c-26.6 0-48 21.4-48 48v672c0 26.6 21.4 48 48 48h48c26.6 0 48-21.4 48-48zM656 576h-272v175.4c0 35.6-43 53.4-68.2 28.2l-304.4-304.2c-15-15-15-39.6 0-54.6l304.4-304.4c25.2-25.2 68.2-7.4 68.2 28.2v175.4h272c26.6 0 48 21.4 48 48v160c0 26.6-21.4 48-48 48z" />
<glyph unicode="&#xe929;" glyph-name="arrow-alt-from-top" horiz-adv-x="768" d="M48 896h672c26.6 0 48-21.4 48-48v-48c0-26.6-21.4-48-48-48h-672c-26.6 0-48 21.4-48 48v48c0 26.6 21.4 48 48 48zM256 656v-272h-175.4c-35.6 0-53.4-43-28.2-68.2l304.4-304.4c15-15 39.6-15 54.6 0l304.4 304.4c25.2 25.2 7.4 68.2-28.2 68.2h-175.6v272c0 26.6-21.4 48-48 48h-160c-26.6 0-48-21.4-48-48z" />
<glyph unicode="&#xe92a;" glyph-name="arrow-alt-left" horiz-adv-x="896" d="M896 544v-192c0-26.6-21.4-48-48-48h-400v-207.6c0-42.8-51.6-64.2-82-34l-352 351.6c-18.8 18.8-18.8 49.2 0 68l352 351.4c30.2 30.2 82 8.8 82-34v-207.4h400c26.6 0 48-21.4 48-48z" />
<glyph unicode="&#xe92b;" glyph-name="arrow-alt-right" horiz-adv-x="896" d="M0 352v192c0 26.6 21.4 48 48 48h400v207.6c0 42.8 51.6 64.2 82 34l352-351.6c18.8-18.8 18.8-49.2 0-68l-352-351.4c-30.2-30.2-82-8.8-82 34v207.4h-400c-26.6 0-48 21.4-48 48z" />
<glyph unicode="&#xe92c;" glyph-name="arrow-alt-square-down" horiz-adv-x="896" d="M896 800v-704c0-53-43-96-96-96h-704c-53 0-96 43-96 96v704c0 53 43 96 96 96h704c53 0 96-43 96-96zM360 680v-232h-141.8c-21.4 0-32.2-26-17-41l229.8-228.6c9.4-9.4 24.4-9.4 33.8 0l229.8 228.6c15.2 15.2 4.4 41-17 41h-141.6v232c0 13.2-10.8 24-24 24h-128c-13.2 0-24-10.8-24-24z" />
<glyph unicode="&#xe92d;" glyph-name="arrow-alt-square-left" horiz-adv-x="896" d="M800 0h-704c-53 0-96 43-96 96v704c0 53 43 96 96 96h704c53 0 96-43 96-96v-704c0-53-43-96-96-96zM680 536h-232v141.8c0 21.4-26 32.2-41 17l-228.6-229.8c-9.4-9.4-9.4-24.4 0-33.8l228.6-229.8c15.2-15.2 41-4.4 41 17v141.6h232c13.2 0 24 10.8 24 24v128c0 13.2-10.8 24-24 24z" />
<glyph unicode="&#xe92e;" glyph-name="arrow-alt-square-right" horiz-adv-x="896" d="M96 896h704c53 0 96-43 96-96v-704c0-53-43-96-96-96h-704c-53 0-96 43-96 96v704c0 53 43 96 96 96zM216 360h232v-141.8c0-21.4 26-32.2 41-17l228.6 229.8c9.4 9.4 9.4 24.4 0 33.8l-228.6 230c-15.2 15.2-41 4.4-41-17v-141.8h-232c-13.2 0-24-10.8-24-24v-128c0-13.2 10.8-24 24-24z" />
<glyph unicode="&#xe92f;" glyph-name="arrow-alt-square-up" horiz-adv-x="896" d="M0 96v704c0 53 43 96 96 96h704c53 0 96-43 96-96v-704c0-53-43-96-96-96h-704c-53 0-96 43-96 96zM536 216v232h141.8c21.4 0 32.2 26 17 41l-229.8 228.6c-9.4 9.4-24.4 9.4-33.8 0l-230-228.6c-15.2-15-4.4-41 17-41h141.8v-232c0-13.2 10.8-24 24-24h128c13.2 0 24 10.8 24 24z" />
<glyph unicode="&#xe930;" glyph-name="arrow-alt-to-bottom" horiz-adv-x="768" d="M720 0h-672c-26.6 0-48 21.4-48 48v48c0 26.6 21.4 48 48 48h672c26.6 0 48-21.4 48-48v-48c0-26.6-21.4-48-48-48zM256 848v-272h-175.4c-35.6 0-53.4-43-28.2-68.2l304.4-304.4c15-15 39.6-15 54.6 0l304.4 304.4c25.2 25.2 7.4 68.2-28.2 68.2h-175.6v272c0 26.6-21.4 48-48 48h-160c-26.6 0-48-21.4-48-48z" />
<glyph unicode="&#xe931;" glyph-name="arrow-alt-to-left" horiz-adv-x="896" d="M0 112v672c0 26.6 21.4 48 48 48h48c26.6 0 48-21.4 48-48v-672c0-26.6-21.4-48-48-48h-48c-26.6 0-48 21.4-48 48zM848 576h-272v175.4c0 35.6-43 53.4-68.2 28.2l-304.4-304.2c-15-15-15-39.6 0-54.6l304.4-304.4c25.2-25.2 68.2-7.4 68.2 28.2v175.4h272c26.6 0 48 21.4 48 48v160c0 26.6-21.4 48-48 48z" />
<glyph unicode="&#xe932;" glyph-name="arrow-alt-to-right" horiz-adv-x="896" d="M896 784v-672c0-26.6-21.4-48-48-48h-48c-26.6 0-48 21.4-48 48v672c0 26.6 21.4 48 48 48h48c26.6 0 48-21.4 48-48zM48 320h272v-175.4c0-35.6 43-53.4 68.2-28.2l304.4 304.4c15 15 15 39.6 0 54.6l-304.4 304.4c-25.2 25.2-68.2 7.4-68.2-28.2v-175.6h-272c-26.6 0-48-21.4-48-48v-160c0-26.6 21.4-48 48-48z" />
<glyph unicode="&#xe933;" glyph-name="arrow-alt-to-top" horiz-adv-x="768" d="M48 896h672c26.6 0 48-21.4 48-48v-48c0-26.6-21.4-48-48-48h-672c-26.6 0-48 21.4-48 48v48c0 26.6 21.4 48 48 48zM512 48v272h175.4c35.6 0 53.4 43 28.2 68.2l-304.2 304.4c-15 15-39.6 15-54.6 0l-304.6-304.4c-25.2-25.2-7.2-68.2 28.4-68.2h175.4v-272c0-26.6 21.4-48 48-48h160c26.6 0 48 21.4 48 48z" />
<glyph unicode="&#xe934;" glyph-name="arrow-alt-up" horiz-adv-x="896" d="M544 0h-192c-26.6 0-48 21.4-48 48v400h-207.6c-42.8 0-64.2 51.6-34 82l351.6 352c18.8 18.8 49.2 18.8 68 0l351.6-352c30.2-30.2 8.8-82-34-82h-207.6v-400c0-26.6-21.4-48-48-48z" />
<glyph unicode="&#xe935;" glyph-name="arrow-circle-down" d="M1008 448c0-274-222-496-496-496s-496 222-496 496 222 496 496 496 496-222 496-496zM720.8 505.8l-144.8-151v365.2c0 26.6-21.4 48-48 48h-32c-26.6 0-48-21.4-48-48v-365.2l-144.8 151c-18.6 19.4-49.6 19.8-68.6 0.8l-21.8-22c-18.8-18.8-18.8-49.2 0-67.8l265.2-265.4c18.8-18.8 49.2-18.8 67.8 0l265.4 265.4c18.8 18.8 18.8 49.2 0 67.8l-21.8 22c-19 19-50 18.6-68.6-0.8z" />
<glyph unicode="&#xe936;" glyph-name="arrow-circle-left" d="M512-48c-274 0-496 222-496 496s222 496 496 496 496-222 496-496-222-496-496-496zM569.8 239.2l-151 144.8h365.2c26.6 0 48 21.4 48 48v32c0 26.6-21.4 48-48 48h-365.2l151 144.8c19.4 18.6 19.8 49.6 0.8 68.6l-22 21.8c-18.8 18.8-49.2 18.8-67.8 0l-265.4-265.2c-18.8-18.8-18.8-49.2 0-67.8l265.4-265.4c18.8-18.8 49.2-18.8 67.8 0l22 21.8c19 19 18.6 50-0.8 68.6z" />
<glyph unicode="&#xe937;" glyph-name="arrow-circle-right" d="M512 944c274 0 496-222 496-496s-222-496-496-496-496 222-496 496 222 496 496 496zM454.2 656.8l151-144.8h-365.2c-26.6 0-48-21.4-48-48v-32c0-26.6 21.4-48 48-48h365.2l-151-144.8c-19.4-18.6-19.8-49.6-0.8-68.6l22-21.8c18.8-18.8 49.2-18.8 67.8 0l265.4 265.2c18.8 18.8 18.8 49.2 0 67.8l-265.4 265.6c-18.8 18.8-49.2 18.8-67.8 0l-22-21.8c-19-19.2-18.6-50.2 0.8-68.8z" />
<glyph unicode="&#xe938;" glyph-name="arrow-circle-up" d="M16 448c0 274 222 496 496 496s496-222 496-496-222-496-496-496-496 222-496 496zM303.2 390.2l144.8 151v-365.2c0-26.6 21.4-48 48-48h32c26.6 0 48 21.4 48 48v365.2l144.8-151c18.6-19.4 49.6-19.8 68.6-0.8l21.8 22c18.8 18.8 18.8 49.2 0 67.8l-265.2 265.4c-18.8 18.8-49.2 18.8-67.8 0l-265.6-265.4c-18.8-18.8-18.8-49.2 0-67.8l21.8-22c19.2-19 50.2-18.6 68.8 0.8z" />
<glyph unicode="&#xe939;" glyph-name="arrow-down" horiz-adv-x="896" d="M826.2 515l44.4-44.4c18.8-18.8 18.8-49.2 0-67.8l-388.6-388.8c-18.8-18.8-49.2-18.8-67.8 0l-388.8 388.8c-18.8 18.8-18.8 49.2 0 67.8l44.4 44.4c19 19 50 18.6 68.6-0.8l229.6-241v574.8c0 26.6 21.4 48 48 48h64c26.6 0 48-21.4 48-48v-574.8l229.6 241c18.6 19.6 49.6 20 68.6 0.8z" />
<glyph unicode="&#xe93a;" glyph-name="arrow-from-bottom" horiz-adv-x="768" d="M720 0h-672c-26.6 0-48 21.4-48 48v48c0 26.6 21.4 48 48 48h672c26.6 0 48-21.4 48-48v-48c0-26.6-21.4-48-48-48zM180.8 527l131.2 131.2v-418.2c0-26.6 21.4-48 48-48h48c26.6 0 48 21.4 48 48v418.2l131.2-131.2c18.8-18.8 49.2-18.8 67.8 0l34 34c18.8 18.8 18.8 49.2 0 67.8l-271 271c-18.8 18.8-49.2 18.8-67.8 0l-271.2-271c-18.8-18.8-18.8-49.2 0-67.8l34-34c18.8-18.8 49.2-18.8 67.8 0z" />
<glyph unicode="&#xe93b;" glyph-name="arrow-from-left" horiz-adv-x="896" d="M0 112v672c0 26.6 21.4 48 48 48h48c26.6 0 48-21.4 48-48v-672c0-26.6-21.4-48-48-48h-48c-26.6 0-48 21.4-48 48zM509 651.2l131.2-131.2h-400.2c-26.6 0-48-21.4-48-48v-48c0-26.6 21.4-48 48-48h400.2l-131.2-131.2c-18.8-18.8-18.8-49.2 0-67.8l34-34c18.8-18.8 49.2-18.8 67.8 0l271.2 271c18.8 18.8 18.8 49.2 0 67.8l-271 271.2c-18.8 18.8-49.2 18.8-67.8 0l-34-34c-18.8-18.8-18.8-49.2-0.2-67.8z" />
<glyph unicode="&#xe93c;" glyph-name="arrow-from-right" horiz-adv-x="896" d="M896 784v-672c0-26.6-21.4-48-48-48h-48c-26.6 0-48 21.4-48 48v672c0 26.6 21.4 48 48 48h48c26.6 0 48-21.4 48-48zM387 244.8l-131.2 131.2h400.2c26.6 0 48 21.4 48 48v48c0 26.6-21.4 48-48 48h-400.2l131.2 131.2c18.8 18.8 18.8 49.2 0 67.8l-34 34c-18.8 18.8-49.2 18.8-67.8 0l-271.2-271c-18.8-18.8-18.8-49.2 0-67.8l271-271c18.8-18.8 49.2-18.8 67.8 0l34 34c18.8 18.6 18.8 49 0.2 67.6z" />
<glyph unicode="&#xe93d;" glyph-name="arrow-from-top" horiz-adv-x="768" d="M48 896h672c26.6 0 48-21.4 48-48v-48c0-26.6-21.4-48-48-48h-672c-26.6 0-48 21.4-48 48v48c0 26.6 21.4 48 48 48zM587.2 369l-131.2-131.2v418.2c0 26.6-21.4 48-48 48h-48c-26.6 0-48-21.4-48-48v-418.2l-131.2 131.2c-18.8 18.8-49.2 18.8-67.8 0l-34-34c-18.8-18.8-18.8-49.2 0-67.8l271-271c18.8-18.8 49.2-18.8 67.8 0l271 271c18.8 18.8 18.8 49.2 0 67.8l-34 34c-18.6 18.8-49 18.8-67.6 0z" />
<glyph unicode="&#xe93e;" glyph-name="arrow-left" horiz-adv-x="896" d="M515 69.8l-44.4-44.4c-18.8-18.8-49.2-18.8-67.8 0l-388.8 388.6c-18.8 18.8-18.8 49.2 0 67.8l388.8 388.8c18.8 18.8 49.2 18.8 67.8 0l44.4-44.4c19-19 18.6-50-0.8-68.6l-241-229.6h574.8c26.6 0 48-21.4 48-48v-64c0-26.6-21.4-48-48-48h-574.8l241-229.6c19.6-18.6 20-49.6 0.8-68.6z" />
<glyph unicode="&#xe93f;" glyph-name="arrow-right" horiz-adv-x="896" d="M381 826.2l44.4 44.4c18.8 18.8 49.2 18.8 67.8 0l388.8-388.6c18.8-18.8 18.8-49.2 0-67.8l-388.8-388.8c-18.8-18.8-49.2-18.8-67.8 0l-44.4 44.4c-19 19-18.6 50 0.8 68.6l241 229.6h-574.8c-26.6 0-48 21.4-48 48v64c0 26.6 21.4 48 48 48h574.8l-241 229.6c-19.6 18.6-20 49.6-0.8 68.6z" />
<glyph unicode="&#xe940;" glyph-name="arrows" d="M705.268 102.758l-148.014-148.014c-24.994-24.994-65.516-24.994-90.51 0l-148.014 148.014c-18.746 18.746-18.746 49.138 0 67.882l21.68 21.68c19.112 19.112 50.226 18.682 68.804-0.948l46.786-52.102v252.73h-252.73l52.102-46.784c19.63-18.578 20.060-49.692 0.948-68.804l-21.68-21.68c-18.746-18.746-49.138-18.746-67.882 0l-148.012 148.014c-24.994 24.994-24.994 65.516 0 90.51l148.014 148.014c18.746 18.746 49.138 18.746 67.882 0l21.68-21.68c19.112-19.112 18.682-50.228-0.948-68.804l-52.104-46.786h252.73v252.73l-46.784-52.102c-18.578-19.63-49.692-20.060-68.804-0.948l-21.68 21.68c-18.746 18.746-18.746 49.138 0 67.882l148.014 148.014c24.994 24.994 65.516 24.994 90.51 0l148.014-148.014c18.746-18.746 18.746-49.138 0-67.882l-21.68-21.68c-19.112-19.112-50.226-18.682-68.804 0.948l-46.786 52.102v-252.73h252.73l-52.102 46.784c-19.63 18.578-20.060 49.692-0.948 68.804l21.68 21.68c18.746 18.746 49.138 18.746 67.882 0l148.014-148.014c24.994-24.994 24.994-65.516 0-90.51l-148.014-148.014c-18.746-18.746-49.138-18.746-67.882 0l-21.68 21.68c-19.112 19.112-18.682 50.226 0.948 68.804l52.102 46.786h-252.73v-252.73l46.784 52.102c18.578 19.63 49.692 20.060 68.804 0.948l21.68-21.68c18.746-18.744 18.746-49.136 0-67.882z" />
<glyph unicode="&#xe941;" glyph-name="arrows-alt" d="M704.402 108.45l-158.392-158.392c-18.746-18.746-49.136-18.746-67.882 0l-158.392 158.392c-30.238 30.238-8.822 81.942 33.942 81.94h102.324l-0.002 201.61h-201.608v-102.324c0-42.764-51.702-64.18-81.942-33.942l-158.392 158.392c-18.746 18.746-18.746 49.138 0 67.882l158.392 158.392c30.238 30.238 81.942 8.822 81.942-33.942v-102.458h201.608v201.608h-102.46c-42.764 0-64.18 51.702-33.942 81.942l158.392 158.392c18.746 18.746 49.136 18.746 67.882 0l158.392-158.392c30.238-30.238 8.822-81.942-33.942-81.942h-102.324v-201.608h201.608v102.324c0 42.764 51.702 64.18 81.94 33.942l158.392-158.392c18.746-18.746 18.746-49.138 0-67.882l-158.392-158.392c-30.238-30.238-81.942-8.822-81.94 33.942v102.458h-201.606v-201.608h102.46c42.764 0 64.18-51.702 33.942-81.942z" />
<glyph unicode="&#xe942;" glyph-name="arrows-alt-h" d="M755.882 620.118v-92.118h-487.764v92.118c0 42.764-51.702 64.18-81.942 33.942l-172.118-172.118c-18.746-18.746-18.746-49.136 0-67.882l172.118-172.118c30.238-30.238 81.942-8.822 81.942 33.942v92.116h487.764v-92.118c0-42.764 51.702-64.18 81.942-33.942l172.118 172.118c18.746 18.746 18.746 49.136 0 67.882l-172.118 172.118c-30.238 30.24-81.942 8.824-81.942-33.94z" />
<glyph unicode="&#xe943;" glyph-name="arrows-alt-v" horiz-adv-x="512" d="M428.118 204.118h-92.118v487.764h92.118c42.764 0 64.18 51.702 33.942 81.942l-172.118 172.118c-18.746 18.746-49.136 18.746-67.882 0l-172.118-172.118c-30.238-30.238-8.822-81.942 33.942-81.942h92.116v-487.764h-92.118c-42.764 0-64.18-51.702-33.942-81.942l172.118-172.118c18.746-18.746 49.136-18.746 67.882 0l172.118 172.118c30.24 30.238 8.824 81.942-33.94 81.942z" />
<glyph unicode="&#xe944;" glyph-name="arrows-h" d="M211.63 384h600.742l-92.416-87.456c-19.63-18.578-20.060-49.692-0.948-68.804l21.68-21.68c18.746-18.746 49.138-18.746 67.882 0l196.686 196.686c24.994 24.994 24.994 65.516 0 90.51l-196.686 196.686c-18.746 18.746-49.138 18.746-67.882 0l-21.68-21.68c-19.112-19.112-18.682-50.226 0.948-68.804l92.416-87.458h-600.742l92.416 87.456c19.63 18.578 20.060 49.692 0.948 68.804l-21.68 21.68c-18.746 18.746-49.138 18.746-67.882 0l-196.686-196.684c-24.994-24.994-24.994-65.516 0-90.51l196.686-196.686c18.746-18.746 49.138-18.746 67.882 0l21.68 21.68c19.112 19.112 18.682 50.226-0.948 68.804l-92.416 87.456z" />
<glyph unicode="&#xe945;" glyph-name="arrow-square-down" horiz-adv-x="896" d="M896 800v-704c0-53-43-96-96-96h-704c-53 0-96 43-96 96v704c0 53 43 96 96 96h704c53 0 96-43 96-96zM656.8 505.8l-144.8-151v365.2c0 26.6-21.4 48-48 48h-32c-26.6 0-48-21.4-48-48v-365.2l-144.8 151c-18.6 19.4-49.6 19.8-68.6 0.8l-21.8-22c-18.8-18.8-18.8-49.2 0-67.8l265.2-265.4c18.8-18.8 49.2-18.8 67.8 0l265.4 265.4c18.8 18.8 18.8 49.2 0 67.8l-21.8 22c-19 19-50 18.6-68.6-0.8z" />
<glyph unicode="&#xe946;" glyph-name="arrow-square-left" horiz-adv-x="896" d="M800 0h-704c-53 0-96 43-96 96v704c0 53 43 96 96 96h704c53 0 96-43 96-96v-704c0-53-43-96-96-96zM505.8 239.2l-151 144.8h365.2c26.6 0 48 21.4 48 48v32c0 26.6-21.4 48-48 48h-365.2l151 144.8c19.4 18.6 19.8 49.6 0.8 68.6l-22 21.8c-18.8 18.8-49.2 18.8-67.8 0l-265.4-265.2c-18.8-18.8-18.8-49.2 0-67.8l265.4-265.4c18.8-18.8 49.2-18.8 67.8 0l22 21.8c19 19 18.6 50-0.8 68.6z" />
<glyph unicode="&#xe947;" glyph-name="arrow-square-right" horiz-adv-x="896" d="M96 896h704c53 0 96-43 96-96v-704c0-53-43-96-96-96h-704c-53 0-96 43-96 96v704c0 53 43 96 96 96zM390.2 656.8l151-144.8h-365.2c-26.6 0-48-21.4-48-48v-32c0-26.6 21.4-48 48-48h365.2l-151-144.8c-19.4-18.6-19.8-49.6-0.8-68.6l22-21.8c18.8-18.8 49.2-18.8 67.8 0l265.4 265.2c18.8 18.8 18.8 49.2 0 67.8l-265.4 265.6c-18.8 18.8-49.2 18.8-67.8 0l-22-21.8c-19-19.2-18.6-50.2 0.8-68.8z" />
<glyph unicode="&#xe948;" glyph-name="arrow-square-up" horiz-adv-x="896" d="M0 96v704c0 53 43 96 96 96h704c53 0 96-43 96-96v-704c0-53-43-96-96-96h-704c-53 0-96 43-96 96zM239.2 390.2l144.8 151v-365.2c0-26.6 21.4-48 48-48h32c26.6 0 48 21.4 48 48v365.2l144.8-151c18.6-19.4 49.6-19.8 68.6-0.8l21.8 22c18.8 18.8 18.8 49.2 0 67.8l-265.2 265.4c-18.8 18.8-49.2 18.8-67.8 0l-265.6-265.4c-18.8-18.8-18.8-49.2 0-67.8l21.8-22c19.2-19 50.2-18.6 68.8 0.8z" />
<glyph unicode="&#xe949;" glyph-name="arrows-v" horiz-adv-x="512" d="M320 147.628v600.742l87.456-92.416c18.578-19.63 49.692-20.060 68.804-0.948l21.68 21.68c18.746 18.746 18.746 49.138 0 67.882l-196.686 196.686c-24.994 24.994-65.516 24.994-90.51 0l-196.686-196.684c-18.746-18.746-18.746-49.138 0-67.882l21.68-21.68c19.112-19.112 50.226-18.682 68.804 0.948l87.458 92.414v-600.742l-87.456 92.416c-18.578 19.63-49.692 20.060-68.804 0.948l-21.68-21.68c-18.746-18.746-18.746-49.138 0-67.882l196.686-196.686c24.994-24.994 65.516-24.994 90.51 0l196.686 196.686c18.746 18.746 18.746 49.138 0 67.882l-21.68 21.68c-19.112 19.112-50.226 18.682-68.804-0.948l-87.458-92.416z" />
<glyph unicode="&#xe94a;" glyph-name="arrow-to-bottom" horiz-adv-x="768" d="M720 0h-672c-26.6 0-48 21.4-48 48v48c0 26.6 21.4 48 48 48h672c26.6 0 48-21.4 48-48v-48c0-26.6-21.4-48-48-48zM587.2 561l-131.2-131.2v418.2c0 26.6-21.4 48-48 48h-48c-26.6 0-48-21.4-48-48v-418.2l-131.2 131.2c-18.8 18.8-49.2 18.8-67.8 0l-34-34c-18.8-18.8-18.8-49.2 0-67.8l271-271c18.8-18.8 49.2-18.8 67.8 0l271 271c18.8 18.8 18.8 49.2 0 67.8l-34 34c-18.6 18.8-49 18.8-67.6 0z" />
<glyph unicode="&#xe94b;" glyph-name="arrow-to-left" horiz-adv-x="896" d="M0 112v672c0 26.6 21.4 48 48 48h48c26.6 0 48-21.4 48-48v-672c0-26.6-21.4-48-48-48h-48c-26.6 0-48 21.4-48 48zM561 244.8l-131.2 131.2h418.2c26.6 0 48 21.4 48 48v48c0 26.6-21.4 48-48 48h-418.2l131.2 131.2c18.8 18.8 18.8 49.2 0 67.8l-34 34c-18.8 18.8-49.2 18.8-67.8 0l-271-271c-18.8-18.8-18.8-49.2 0-67.8l271-271c18.8-18.8 49.2-18.8 67.8 0l34 34c18.8 18.6 18.8 49 0 67.6z" />
<glyph unicode="&#xe94c;" glyph-name="arrow-to-right" horiz-adv-x="896" d="M896 784v-672c0-26.6-21.4-48-48-48h-48c-26.6 0-48 21.4-48 48v672c0 26.6 21.4 48 48 48h48c26.6 0 48-21.4 48-48zM335 651.2l131.2-131.2h-418.2c-26.6 0-48-21.4-48-48v-48c0-26.6 21.4-48 48-48h418.2l-131.2-131.2c-18.8-18.8-18.8-49.2 0-67.8l34-34c18.8-18.8 49.2-18.8 67.8 0l271 271c18.8 18.8 18.8 49.2 0 67.8l-271 271.2c-18.8 18.8-49.2 18.8-67.8 0l-34-34c-18.8-18.8-18.8-49.2 0-67.8z" />
<glyph unicode="&#xe94d;" glyph-name="arrow-to-top" horiz-adv-x="768" d="M48 896h672c26.6 0 48-21.4 48-48v-48c0-26.6-21.4-48-48-48h-672c-26.6 0-48 21.4-48 48v48c0 26.6 21.4 48 48 48zM180.8 335l131.2 131.2v-418.2c0-26.6 21.4-48 48-48h48c26.6 0 48 21.4 48 48v418.2l131.2-131.2c18.8-18.8 49.2-18.8 67.8 0l34 34c18.8 18.8 18.8 49.2 0 67.8l-271 271c-18.8 18.8-49.2 18.8-67.8 0l-271.2-271c-18.8-18.8-18.8-49.2 0-67.8l34-34c18.8-18.8 49.2-18.8 67.8 0z" />
<glyph unicode="&#xe94e;" glyph-name="arrow-up" horiz-adv-x="896" d="M69.8 381l-44.4 44.4c-18.8 18.8-18.8 49.2 0 67.8l388.6 388.8c18.8 18.8 49.2 18.8 67.8 0l388.6-388.6c18.8-18.8 18.8-49.2 0-67.8l-44.4-44.4c-19-19-50-18.6-68.6 0.8l-229.4 240.8v-574.8c0-26.6-21.4-48-48-48h-64c-26.6 0-48 21.4-48 48v574.8l-229.6-241c-18.6-19.6-49.6-20-68.6-0.8z" />
<glyph unicode="&#xe94f;" glyph-name="assistive-listening-systems" d="M432 440c0-30.928-25.072-56-56-56s-56 25.072-56 56c0 88.224 71.776 160 160 160s160-71.776 160-160c0-30.928-25.072-56-56-56s-56 25.072-56 56c0 26.468-21.534 48-48 48s-48-21.532-48-48zM480 792c-194.094 0-352-157.906-352-352 0-30.928 25.072-56 56-56s56 25.072 56 56c0 132.336 107.664 240 240 240s240-107.664 240-240c0-150.328-142.018-140.622-143.994-287.244l-0.006-0.756c0-57.346-46.654-104-104-104-30.928 0-56-25.072-56-56s25.072-56 56-56c118.95 0 215.752 96.656 216 215.548 1.19 68.856 144 96.48 144 288.452 0 194.094-157.906 352-352 352zM320 320c-35.346 0-64-28.654-64-64s28.654-64 64-64 64 28.654 64 64-28.654 64-64 64zM64 64c-35.346 0-64-28.654-64-64s28.654-64 64-64 64 28.654 64 64-28.654 64-64 64zM1024 439.986c0 3.036-0.024 6.050-0.090 9.062-3.758 229.902-151.596 434.012-367.922 507.93-29.266 9.996-61.098-5.618-71.1-34.884-10-29.266 5.62-61.098 34.884-71.1 171.812-58.708 289.22-221.026 292.154-403.906l0.006-0.376c0.052-2.236 0.066-4.472 0.066-6.726 0-30.928 25.072-56 56-56s56.002 25.072 56.002 56zM305.942 81.942l-160 160-67.882-67.882 160-160 67.882 67.882z" />
<glyph unicode="&#xe950;" glyph-name="asterisk" d="M956.42 291.814l-284.42 156.186 284.42 156.186c23.59 12.954 31.922 42.768 18.464 66.074l-38.96 67.482c-13.456 23.306-43.44 30.998-66.454 17.046l-277.47-168.224 6.95 324.408c0.576 26.906-21.076 49.028-47.99 49.028h-77.92c-26.912 0-48.566-22.122-47.988-49.028l6.948-324.408-277.47 168.222c-23.012 13.952-52.998 6.26-66.454-17.046l-38.96-67.482c-13.456-23.306-5.124-53.12 18.466-66.074l284.418-156.184-284.42-156.186c-23.59-12.954-31.922-42.768-18.464-66.074l38.96-67.482c13.456-23.306 43.442-30.998 66.454-17.046l277.47 168.224-6.95-324.408c-0.576-26.906 21.078-49.028 47.99-49.028h77.922c26.912 0 48.566 22.122 47.99 49.028l-6.952 324.408 277.47-168.222c23.012-13.952 52.998-6.26 66.454 17.046l38.96 67.482c13.456 23.306 5.126 53.118-18.464 66.072z" />
<glyph unicode="&#xe951;" glyph-name="at" d="M512 944c-274.118 0-496-221.838-496-496 0-274.118 221.838-496 496-496 96.308 0 190.684 28.28 270.816 80.446 24.010 15.63 29.25 48.576 11.104 70.744l-20.354 24.866c-15.342 18.742-42.358 23.334-62.746 10.258-58.98-37.828-128.192-58.314-198.82-58.314-202.916 0-368 165.084-368 368s165.084 368 368 368c200.278 0 368-115.238 368-320 0-77.572-42.186-159.484-116.34-167.386-34.698 0.908-33.82 25.714-26.952 60.048l46.866 242.22c5.732 29.618-16.958 57.118-47.124 57.118h-89.962c0 0 0 0-0.001 0-13.857 0-25.279-10.425-26.851-23.859l-0.012-0.127-0.020-0.184c-29.394 35.802-80.896 43.55-119.942 43.55-149.16 0-275.662-124.468-275.662-302.92 0-130.606 73.57-211.74 192-211.74 53.968 0 114.738 31.274 149.982 76.666 19.044-68.208 81.226-68.206 141.42-68.206 217.816 0 300.598 143.224 300.598 294.82 0 272.694-219.954 448-496 448zM468.64 335.14c-44.498 0-72.14 31.246-72.14 81.542 0 89.986 61.558 145.458 117.26 145.458 44.584 0 71.202-30.482 71.202-81.54 0-90.122-67.75-145.46-116.322-145.46z" />
<glyph unicode="&#xe952;" glyph-name="atlas" horiz-adv-x="896" d="M636.76 544h-78.18c-2.98-54.060-13.080-102.7-28.42-140.82 55.42 26.48 96.040 78.38 106.6 140.82zM636.76 608c-10.58 62.44-51.18 114.34-106.6 140.82 15.36-38.12 25.44-86.76 28.42-140.82h78.18zM448 765.38c-15.38-14.9-41.54-68.84-46.86-157.38h93.74c-5.34 88.52-31.5 142.48-46.88 157.38zM365.84 748.82c-55.42-26.48-96.040-78.38-106.6-140.82h78.18c2.98 54.060 13.060 102.7 28.42 140.82zM365.84 403.18c-15.36 38.12-25.44 86.76-28.42 140.82h-78.18c10.56-62.44 51.18-114.34 106.6-140.82zM494.86 544h-93.74c5.32-88.52 31.48-142.48 46.86-157.38 15.4 14.9 41.56 68.86 46.88 157.38zM896 243.2v665.6c0 32-19.2 51.2-51.2 51.2h-652.8c-108.8 0-192-83.2-192-192v-640c0-108.8 83.2-192 192-192h652.8c25.6 0 51.2 19.2 51.2 51.2v32c0 12.8-6.4 25.6-19.2 38.4-6.4 32-6.4 121.6 0 147.2 12.8 6.4 19.2 19.2 19.2 38.4zM448 832c141.38 0 256-114.62 256-256s-114.62-256-256-256-256 114.62-256 256 114.62 256 256 256zM768 64h-576c-38.4 0-64 25.6-64 64s32 64 64 64h576v-128z" />
<glyph unicode="&#xe953;" glyph-name="atom" horiz-adv-x="896" d="M826.060 448c80.26 109.78 83.020 197.24 50.28 256-21.82 39.040-81.080 101.46-232.66 83.76-42.96 102.46-108.4 172.24-195.68 172.24s-152.72-69.78-195.68-172.24c-151.46 17.56-210.86-44.72-232.66-83.76-32.76-58.8-30-146.18 50.28-256-80.26-109.78-83.020-197.24-50.28-256 58.42-104.68 203.36-87.16 232.66-83.76 42.94-102.44 108.4-172.24 195.68-172.24s152.74 69.8 195.68 172.24c29.28-3.4 174.22-20.92 232.66 83.76 32.76 58.8 30 146.18-50.28 256zM126.76 256c-8.060 14.42-0.38 49.6 29.9 96.58 13.92-13.060 28.4-25.78 43.74-38.36 3.42-27.42 8-54.16 13.52-80.16-49.12-1.78-79.78 8.74-87.16 21.94zM200.4 581.76c-15.32-12.58-29.8-25.3-43.74-38.36-30.26 47-37.94 82.18-29.9 96.6 6.82 12.28 32.78 22.94 75.84 22.94 3.42 0 7.74-0.6 11.38-0.74-4.759-20.66-9.523-48.006-13.086-75.728l-0.494-4.712zM448 832c18.94 0 44.4-27.040 67.72-74.52-22.38-7.4-44.88-16-67.72-25.72-22.84 9.72-45.34 18.32-67.72 25.72 23.32 47.48 48.78 74.52 67.72 74.52zM448 64c-18.94 0-44.4 27.040-67.72 74.52 22.38 7.4 44.88 16 67.72 25.72 22.84-9.72 45.34-18.32 67.72-25.72-23.32-47.48-48.78-74.52-67.72-74.52zM573 378.66c-53.4-38.16-92.28-58.66-125-74.96-32.7 16.28-71.6 36.82-125 74.96-3.98 55.58-3.98 83.080 0 138.66 53.34 38.1 92.26 58.64 125 74.96 32.78-16.34 71.72-36.88 125-74.96 3.96-55.56 3.98-83.060 0-138.66zM769.24 256c-7.34-13.24-38-23.64-87.16-21.9 5.52 26 10.1 52.74 13.52 80.12 15.32 12.58 29.8 25.3 43.74 38.36 30.26-46.98 37.94-82.16 29.9-96.58zM739.34 543.42c-13.92 13.060-28.4 25.78-43.74 38.36-4.062 32.449-8.826 59.794-14.735 86.711l1.155-6.271c3.64 0.14 7.94 0.74 11.38 0.74 43.040 0 69.020-10.68 75.84-22.94 8.040-14.44 0.36-49.62-29.9-96.6zM448 512c-35.34 0-64-28.66-64-64s28.66-64 64-64 64 28.66 64 64-28.66 64-64 64z" />
<glyph unicode="&#xe954;" glyph-name="atom-alt" horiz-adv-x="896" d="M846.26 846.26c-88.060 88.020-245.66 50.5-398.3-44.5-152.64 94.94-310.2 132.36-398.22 44.5-88-88.020-50.5-245.6 44.5-398.26-95-152.66-132.48-310.26-44.5-398.26 82.56-82.56 231.1-58.82 398.26 45.24 166.48-103.62 315.36-128.080 398.26-45.24 88 88.020 50.5 245.6-44.5 398.26 95.020 152.66 132.5 310.26 44.5 398.26zM140.26 755.74c8.6 8.56 23.16 12.98 42.48 12.98 36.44 0 90.020-16.080 152-48.8-85.4-70.3-136.64-131.94-158.32-158.26-49.7 94.46-60.86 169.34-36.16 194.080zM140.26 140.26c-24.7 24.72-13.56 99.62 36.16 194.080 57.64-69.94 106.2-114.76 158.36-157.72-94.7-49.92-169.76-61.14-194.52-36.36zM448 250.14c-89.64 68.28-146.020 129.8-197.84 197.84 34.2 44.9 96.040 121.22 197.86 198.84 101.8-77.6 163.72-154.040 197.84-198.84-68.28-89.62-129.74-145.94-197.86-197.84zM755.74 140.26c-24.8-24.68-99.84-13.5-194.5 36.38 51.96 42.78 100.52 87.52 158.34 157.7 49.7-94.46 60.86-169.36 36.16-194.080zM719.58 561.66c-21.6 26.24-73.16 88.14-158.32 158.24 62 32.72 115.58 48.8 152 48.8 19.32 0 33.88-4.38 42.48-12.98 24.7-24.72 13.54-99.6-36.16-194.060zM448 512.020c-35.36 0-64.020-28.66-64.020-64.020s28.66-64.020 64.020-64.020 64.020 28.66 64.020 64.020-28.66 64.020-64.020 64.020z" />
<glyph unicode="&#xe955;" glyph-name="audio-description" d="M325.85 482.582l17.644-61.31h-51.212l18.082 61.304c2.554 8.842 5.302 19.988 7.744 30.49 2.44-10.502 5.188-21.646 7.742-30.484zM658.798 546.78h-29.046v-197.562h29.046c59.552 0 92.35 35.356 92.35 99.552 0 64.478-34.98 98.010-92.35 98.010zM1024 736v-576c0-53.020-42.98-96-96-96h-832c-53.020 0-96 42.98-96 96v576c0 53.020 42.98 96 96 96h832c53.020 0 96-42.98 96-96zM490.918 287.722l-114.194 336c-3.315 9.547-12.233 16.277-22.724 16.278h-71.788c-10.491-0.001-19.409-6.731-22.673-16.11l-0.051-0.168-114.194-336c-5.288-15.566 6.284-31.722 22.724-31.722h58.266c10.899 0 20.1 7.265 23.027 17.216l0.043 0.17 17.148 59.812h102.734l17.586-59.954c3.016-10.048 12.183-17.244 23.029-17.244 0 0 0 0 0.001 0h58.344c16.44 0 28.012 16.156 22.722 31.722zM860.32 448.772c0 117.954-75.838 191.228-197.92 191.228h-114.732c-13.254 0-24-10.746-24-24v-336c0-13.254 10.746-24 24-24h114.732c122.082 0 197.92 73.866 197.92 192.772z" />
<glyph unicode="&#xe956;" glyph-name="award" horiz-adv-x="768" d="M194.24 234.74c-17.38 17.38-8.32 12.48-50.24 23.7-19.020 5.1-35.74 14.9-50.86 26.64l-90.74-222.48c-8.78-21.54 7.62-44.94 30.86-44.060l105.38 4.020 72.48-76.56c16-16.88 44.080-11.62 52.86 9.92l104.1 255.24c-21.68-12.080-45.74-19.16-70.62-19.16-39 0-75.64 15.18-103.22 42.74zM765.6 62.6l-90.74 222.48c-15.12-11.76-31.84-21.54-50.86-26.64-42.14-11.28-32.9-6.36-50.24-23.7-27.58-27.56-64.24-42.74-103.24-42.74-24.88 0-48.94 7.1-70.62 19.16l104.1-255.24c8.78-21.54 36.88-26.8 52.86-9.92l72.5 76.56 105.38-4.020c23.24-0.88 39.64 22.54 30.86 44.060zM526 280c30.56 31.1 34.060 28.42 77.58 40.28 27.78 7.58 49.5 29.68 56.94 57.96 14.96 56.8 11.080 49.94 51.9 91.5 20.34 20.7 28.28 50.88 20.84 79.16-14.94 56.76-14.96 48.84 0 105.66 7.44 28.28-0.5 58.46-20.84 79.16-40.82 41.56-36.94 34.72-51.9 91.5-7.44 28.28-29.16 50.38-56.94 57.96-55.76 15.22-49.040 11.24-89.9 52.82-20.34 20.7-50 28.8-77.78 21.22-55.74-15.2-47.96-15.22-103.8 0-27.78 7.58-57.44-0.5-77.78-21.22-40.82-41.56-34.1-37.6-89.88-52.82-27.78-7.58-49.5-29.68-56.94-57.96-14.94-56.78-11.080-49.94-51.9-91.5-20.34-20.7-28.3-50.88-20.84-79.16 14.94-56.72 14.96-48.8 0-105.64-7.44-28.28 0.5-58.46 20.84-79.18 40.82-41.56 36.94-34.7 51.9-91.5 7.44-28.28 29.16-50.38 56.94-57.96 44.76-12.2 48.1-10.28 77.56-40.28 26.46-26.94 67.68-31.76 99.48-11.64 12.043 7.753 26.748 12.36 42.53 12.36s30.487-4.607 42.845-12.549l-0.315 0.19c31.78-20.12 73-15.3 99.46 11.64zM195.32 608.080c0 106.060 84.48 192.040 188.68 192.040s188.68-85.98 188.68-192.040-84.48-192.040-188.68-192.040-188.68 85.98-188.68 192.040z" />
<glyph unicode="&#xe957;" glyph-name="axe" horiz-adv-x="1280" d="M9.38 81.14c-12.5-12.5-12.5-32.76 0-45.26l90.52-90.5c12.5-12.5 32.76-12.5 45.26 0l471.74 471.74-135.76 135.76-471.76-471.74zM1051.48 640l-105.86 105.86 69 69c12.5 12.5 12.5 32.76 0 45.26l-90.5 90.5c-12.5 12.5-32.76 12.5-45.26 0l-69-69-59.62 59.64c-12.5 12.5-28.88 18.74-45.26 18.74s-32.76-6.24-45.26-18.74l-192.98-192.98c-25-25-25-65.52 0-90.5l301.26-301.26v-228.52h64c247.42 0 448 200.58 448 448v64h-228.52zM896 262.42v75.88c78.56 32.5 141.2 95.12 173.68 173.68h75.88c-25.5-125.18-124.36-224.040-249.56-249.56z" />
<glyph unicode="&#xe958;" glyph-name="axe-battle" d="M1024 638.16c-13.68 123.52-67.2 233.26-146.12 312.44-18.42 18.5-47.78 8.24-54.12-17.92-24.060-99.34-94.5-176.54-183.76-202.46v-308.44c89.26-25.92 159.7-103.12 183.76-202.46 6.34-26.16 35.7-36.42 54.12-17.92 78.92 79.18 132.44 188.9 146.12 312.44l-125.52 62.16 125.52 62.16zM202 932.68c-6.28 26.16-35.36 36.4-53.6 17.92-91.060-92.26-148.4-225.84-148.4-374.6s57.34-282.34 148.4-374.6c18.26-18.5 47.32-8.24 53.6 17.92 23.84 99.34 93.58 176.54 182 202.46v308.44c-88.42 25.92-158.16 103.12-182 202.46zM544 832h-64c-17.68 0-32-14.32-32-32v-832c0-17.68 14.32-32 32-32h64c17.68 0 32 14.32 32 32v832c0 17.68-14.32 32-32 32z" />
<glyph unicode="&#xe959;" glyph-name="baby" horiz-adv-x="768" d="M384 640c88.4 0 160 71.6 160 160s-71.6 160-160 160-160-71.6-160-160 71.6-160 160-160zM277.2 142.4l51.2 64-123 102.4-91.8-114.8c-22.8-28.4-23.4-68.8-1.6-98l96-128c15.8-21 39.8-32 64-32 16.6 0 33.6 5.2 48 16 35.4 26.4 42.4 76.6 16 112l-58.8 78.4zM562.6 308.8l-123-102.4 51.2-64-58.8-78.4c-26.4-35.4-19.4-85.6 16-112 14.4-10.8 31.2-16 48-16 24.4 0 48.4 11 64 32l96 128c21.8 29.2 21.2 69.6-1.6 98l-91.8 114.8zM753.4 670c-25.4 36.2-75.2 44.8-111.4 19.6l-81.2-57c-105.4-74-248.4-74-353.6 0l-81.2 56.8c-36.2 25.4-86 16.6-111.4-19.4-25.4-36.2-16.6-86 19.4-111.4l81.2-57c34-23.8 70.8-41.8 108.8-55.8v-61.8h320v61.6c38 14 74.8 32 108.8 55.8l81.2 57c36.2 25.6 44.8 75.4 19.4 111.6z" />
<glyph unicode="&#xe95a;" glyph-name="baby-carriage" d="M289.6 926c-22.6 35.6-74.4 45.6-108 18.8-111-88.6-181.6-220.8-181.6-368.8h512l-222.4 350zM992 768h-96c-70.6 0-128-57.4-128-128v-128h-768c0-101.2 46-192.8 120.6-261.4-69.2-17.8-120.6-80-120.6-154.6 0-88.4 71.6-160 160-160s160 71.6 160 160c0 17.8-3.6 34.4-8.8 50.4 43.2-11.8 89.2-18.4 136.8-18.4s93.8 6.6 136.8 18.4c-5.4-16-8.8-32.6-8.8-50.4 0-88.4 71.6-160 160-160s160 71.6 160 160c0 74.6-51.4 136.8-120.6 154.6 74.6 68.6 120.6 160.2 120.6 261.4v128h96c17.6 0 32 14.4 32 32v64c0 17.6-14.4 32-32 32zM160 32c-35.2 0-64 28.8-64 64s28.8 64 64 64 64-28.8 64-64-28.8-64-64-64zM800 96c0-35.2-28.8-64-64-64s-64 28.8-64 64 28.8 64 64 64 64-28.8 64-64z" />
<glyph unicode="&#xe95b;" glyph-name="backpack" horiz-adv-x="896" d="M640 320h-384c-35.34 0-64-28.66-64-64v-64h512v64c0 35.34-28.66 64-64 64zM192-64h512v192h-512v-192zM640 800h-16v48c0 61.76-50.24 112-112 112h-128c-61.76 0-112-50.24-112-112v-48h-16c-141.38 0-256-114.62-256-256v-480c0-70.7 57.3-128 128-128v320c0 70.58 57.42 128 128 128h384c70.58 0 128-57.42 128-128v-320c70.7 0 128 57.3 128 128v480c0 141.38-114.62 256-256 256zM368 848c0 8.82 7.18 16 16 16h128c8.82 0 16-7.18 16-16v-48h-160v48zM640 560c0-8.84-7.16-16-16-16h-352c-8.84 0-16 7.16-16 16v32c0 8.84 7.16 16 16 16h352c8.84 0 16-7.16 16-16v-32z" />
<glyph unicode="&#xe95c;" glyph-name="backspace" horiz-adv-x="1280" d="M1152 832h-741.48c-0.008 0-0.017 0-0.026 0-35.343 0-67.339-14.331-90.494-37.499l-301.261-301.241c-25-25-25-65.52 0-90.5l301.26-301.26c24-24 56.56-37.5 90.5-37.5h741.5c70.7 0 128 57.3 128 128v512c0 70.7-57.3 128-128 128zM982.62 323.88c12.5-12.5 12.5-32.76 0-45.26l-45.24-45.24c-12.5-12.5-32.76-12.5-45.26 0l-124.12 124.12-124.12-124.12c-12.5-12.5-32.76-12.5-45.26 0l-45.24 45.24c-12.5 12.5-12.5 32.76 0 45.26l124.12 124.12-124.12 124.12c-12.5 12.5-12.5 32.76 0 45.26l45.24 45.24c12.5 12.5 32.76 12.5 45.26 0l124.12-124.12 124.12 124.12c12.5 12.5 32.76 12.5 45.26 0l45.24-45.24c12.5-12.5 12.5-32.76 0-45.26l-124.12-124.12 124.12-124.12z" />
<glyph unicode="&#xe95d;" glyph-name="backward" d="M23 398.8l384-320c41.2-34.4 105-5.6 105 49.2v640c0 54.8-63.8 83.6-105 49.2l-384-320c-30.6-25.6-30.6-72.8 0-98.4zM535 398.8l384-320c41.2-34.4 105-5.6 105 49.2v640c0 54.8-63.8 83.6-105 49.2l-384-320c-30.6-25.6-30.6-72.8 0-98.4z" />
<glyph unicode="&#xe95e;" glyph-name="bacon" horiz-adv-x="1152" d="M437.84 287.22c69.78 69.78 88.4 119.4 108.1 172 21.22 56.58 43.18 115.080 122.74 194.68s138.1 101.54 194.7 122.76c47.76 18 93.28 35.36 153.58 90.74l-75.34 74.78c-11.184 11.013-26.544 17.813-43.492 17.813-13.882 0-26.699-4.563-37.032-12.27l0.164 0.117c-27.28-20.2-50.3-28.78-82-40.6-285.26-106.28-360.74-329.82-377.96-375.44-59.5-157.66-179.1-189.36-197.44-196.18-49.72-18.52-109.46-40.76-182.14-100.72-27.72-22.9-28.98-64.9-3.58-90.12l71.52-71.020c70.34 65.2 124.34 85.94 176.34 105.46 52.54 19.68 102.12 38.24 171.84 108zM1133.84 751.22l-71.5 71.020c-70.38-65.26-124.36-86-176.5-105.58-52.52-19.7-102.12-38.32-171.9-108s-88.38-119.38-108-172c-21.28-56.66-43.26-115.1-122.84-194.66s-138-101.46-194.6-122.64c-47.72-18-93.22-35.32-153.44-90.66l75.36-74.86c11.183-11.006 26.538-17.802 43.48-17.802 13.887 0 26.708 4.566 37.044 12.278l-0.163-0.117c27.2 20.12 50.18 28.68 81.88 40.48 284.4 106 360 328.2 377.88 375.38 59.46 157.58 179.060 189.34 197.46 196.22 49.74 18.54 109.48 40.8 182.22 100.82 27.78 22.8 29.040 64.9 3.64 90.1z" />
<glyph unicode="&#xe95f;" glyph-name="badge" d="M1024 448c0 75.4-47.4 139.8-114.2 164.8 29.4 64.8 17.6 143.8-35.8 197.2s-132.4 65.2-197.2 35.8c-25 66.8-89.4 114.2-164.8 114.2s-139.8-47.4-164.8-114.2c-64.8 29.4-144 17.6-197.2-35.8-53.4-53.4-65.2-132.4-35.8-197.2-66.8-25-114.2-89.4-114.2-164.8s47.4-139.8 114.2-164.8c-29.4-64.8-17.6-144 35.8-197.2 53.2-53.2 132.2-65.4 197.2-35.8 25-66.6 89.4-114.2 164.8-114.2s139.8 47.4 164.8 114.2c65.2-29.6 144-17.4 197.2 35.8 53.4 53.4 65.2 132.4 35.8 197.2 66.8 25 114.2 89.4 114.2 164.8z" />
<glyph unicode="&#xe960;" glyph-name="badge-check" d="M1024 448c0 75.4-47.4 139.8-114.2 164.8 29.4 64.8 17.6 143.8-35.8 197.2s-132.4 65.2-197.2 35.8c-25 66.8-89.4 114.2-164.8 114.2s-139.8-47.4-164.8-114.2c-64.8 29.4-144 17.6-197.2-35.8-53.4-53.4-65.2-132.4-35.8-197.2-66.8-25-114.2-89.4-114.2-164.8s47.4-139.8 114.2-164.8c-29.4-64.8-17.6-144 35.8-197.2 53.2-53.2 132.2-65.4 197.2-35.8 25-66.6 89.4-114.2 164.8-114.2s139.8 47.4 164.8 114.2c65.2-29.6 144-17.4 197.2 35.8 53.4 53.4 65.2 132.4 35.8 197.2 66.8 25 114.2 89.4 114.2 164.8zM734.4 536.5l-262.080-259.98c-8.62-8.56-22.56-8.5-31.1 0.12l-151.44 152.66c-8.56 8.62-8.5 22.56 0.12 31.12l52.060 51.64c8.62 8.56 22.56 8.5 31.12-0.12l84.3-84.98 194.4 192.84c8.62 8.56 22.56 8.5 31.1-0.12l51.64-52.060c8.56-8.64 8.52-22.58-0.12-31.12z" />
<glyph unicode="&#xe961;" glyph-name="badge-dollar" d="M1024 448c0 75.4-47.4 139.8-114.2 164.8 29.4 64.8 17.6 143.8-35.8 197.2s-132.4 65.2-197.2 35.8c-25 66.8-89.4 114.2-164.8 114.2s-139.8-47.4-164.8-114.2c-64.8 29.4-144 17.6-197.2-35.8-53.4-53.4-65.2-132.4-35.8-197.2-66.8-25-114.2-89.4-114.2-164.8s47.4-139.8 114.2-164.8c-29.4-64.8-17.6-144 35.8-197.2 53.2-53.2 132.2-65.4 197.2-35.8 25-66.6 89.4-114.2 164.8-114.2s139.8 47.4 164.8 114.2c65.2-29.6 144-17.4 197.2 35.8 53.4 53.4 65.2 132.4 35.8 197.2 66.8 25 114.2 89.4 114.2 164.8zM560 259.12v-35.12c0-17.68-14.32-32-32-32h-32c-17.68 0-32 14.32-32 32v35.46c-22.84 2.7-44.56 10.38-63.56 22.92-12.44 8.22-13.64 26.22-3.1 36.76l35.040 35.040c7.48 7.48 18.62 8.48 28.22 4.060 6.36-2.92 13.32-4.44 20.52-4.44h65.56c9.32 0 16.88 7.56 16.88 16.84 0 7.5-5.040 14.16-12.24 16.22l-100.14 28.6c-44.5 12.7-80.020 49.42-85.82 95.34-8.1 64.14 38.060 118.86 98.64 126.1v35.1c0 17.68 14.32 32 32 32h32c17.68 0 32-14.32 32-32v-35.46c22.84-2.7 44.56-10.38 63.56-22.92 12.44-8.22 13.64-26.22 3.1-36.76l-35.040-35.040c-7.48-7.48-18.62-8.48-28.22-4.060-5.985 2.804-12.996 4.44-20.389 4.44-0.046 0-0.092 0-0.138 0h-65.553c-9.32 0-16.88-7.56-16.88-16.84 0-7.5 5.040-14.16 12.24-16.22l100.14-28.6c44.5-12.72 80.020-49.42 85.82-95.34 8.1-64.12-38.060-118.84-98.64-126.080z" />
<glyph unicode="&#xe962;" glyph-name="badge-percent" d="M1024 448c0 75.4-47.4 139.8-114.2 164.8 29.4 64.8 17.6 143.8-35.8 197.2s-132.4 65.2-197.2 35.8c-25 66.8-89.4 114.2-164.8 114.2s-139.8-47.4-164.8-114.2c-64.8 29.4-144 17.6-197.2-35.8-53.4-53.4-65.2-132.4-35.8-197.2-66.8-25-114.2-89.4-114.2-164.8s47.4-139.8 114.2-164.8c-29.4-64.8-17.6-144 35.8-197.2 53.2-53.2 132.2-65.4 197.2-35.8 25-66.6 89.4-114.2 164.8-114.2s139.8 47.4 164.8 114.2c65.2-29.6 144-17.4 197.2 35.8 53.4 53.4 65.2 132.4 35.8 197.2 66.8 25 114.2 89.4 114.2 164.8zM384 640c35.34 0 64-28.66 64-64s-28.66-64-64-64-64 28.66-64 64 28.66 64 64 64zM408.56 276.7c-12.5-12.5-32.76-12.5-45.26 0l-22.62 22.62c-12.5 12.5-12.5 32.76 0 45.26l274.74 274.74c12.5 12.5 32.76 12.5 45.26 0l22.62-22.62c12.5-12.5 12.5-32.76 0-45.26l-274.74-274.74zM640 256c-35.34 0-64 28.66-64 64s28.66 64 64 64 64-28.66 64-64-28.66-64-64-64z" />
<glyph unicode="&#xe963;" glyph-name="badger-honey" horiz-adv-x="1280" d="M1244.5 675.060c-115.3 65.3-141.96 101.34-231.12 139.84-26.64 11.5-54.58 17.1-82.48 17.1-38.1 0-76.18-10.42-110.94-30.42-34.18-19.68-71.86-33.58-110.060-33.58h-453.9c-141.38 0-256-114.62-256-256v-32c0-17.68 14.32-32 32-32h40.060c15.58-66.76 56.1-128.48 107.060-162.36l-42.98-114.6c-5.16-13.343-8.149-28.783-8.149-44.921 0-11.030 1.396-21.735 4.022-31.946l-0.193 0.887 28.18-70.82c3.595-14.030 16.125-24.236 31.040-24.24h127.54c20.82 0 36.1 19.56 31.040 39.76l-31.1 82.52 65.92 133.72h211.38l46.060-230.28c3-14.96 16.12-25.72 31.38-25.72h126.74c20.2 0 35.34 18.48 31.38 38.28l-54 269.92c90.76 61.080 202.48 122.16 304.96 151.1l37.66-75.3 45.3 90.6c56.92 4.74 72.9 18.94 82.38 39.62 14 30.54 32.32 71.58 32.32 95.24 0 27.86-13.76 53.3-35.5 65.6zM1030.38 640c0.56-2.68 1.62-5.16 1.62-8 0-22.080-17.92-40-40-40s-40 17.92-40 40c0 2.84 1.060 5.32 1.62 8h-33.62c-58.12 0-115.72-26.1-169.7-52.020l-203.96-123.5c-22.68-10.88-46.88-16.48-71.3-16.48h-91.040c-84.98 0-156.24 82.96-181.52 181.32 24.56 26.42 57.58 42.68 94.12 42.68h413.3c51.34 0 104.48 15.6 157.94 46.38 20.040 11.54 41.84 17.62 63.060 17.62 15.3 0 30.24-3.1 44.42-9.24 53.74-23.2 72.86-40.84 142.82-86.76h-87.76z" />
<glyph unicode="&#xe964;" glyph-name="balance-scale" horiz-adv-x="1280" d="M512 288h-0.040c0 32.36 2.68 17.46-170.1 363.020-35.3 70.58-136.38 70.72-171.74 0-174.24-348.52-170.080-331.68-170.080-363.020h-0.040c0-88.36 114.62-160 256-160s256 71.64 256 160zM256 608l144-288h-288l144 288zM1279.96 288c0 32.36 2.68 17.46-170.1 363.020-35.3 70.58-136.38 70.72-171.74 0-174.24-348.52-170.080-331.68-170.080-363.020h-0.040c0-88.36 114.62-160 256-160s256 71.64 256 160h-0.040zM880 320l144 288 144-288h-288zM1056 64h-352v589.5c47.020 20.58 82.32 62.96 92.78 114.5h259.22c17.68 0 32 14.32 32 32v64c0 17.68-14.32 32-32 32h-288.72c-29.2 38.64-75.1 64-127.28 64s-98.080-25.36-127.28-64h-288.72c-17.68 0-32-14.32-32-32v-64c0-17.68 14.32-32 32-32h259.22c10.46-51.52 45.74-93.92 92.78-114.5v-589.5h-352c-17.68 0-32-14.32-32-32v-64c0-17.68 14.32-32 32-32h832c17.68 0 32 14.32 32 32v64c0 17.68-14.32 32-32 32z" />
<glyph unicode="&#xe965;" glyph-name="balance-scale-left" horiz-adv-x="1280" d="M1056 64h-352v589.5c40.84 17.88 72.2 52.44 86.76 94.94l264 88.52c16.76 5.62 25.78 23.76 20.16 40.52l-20.34 60.68c-5.62 16.76-23.76 25.78-40.52 20.16l-235.84-79.060c-27.62 48.020-78.84 80.74-138.22 80.74-88.36 0-160-71.64-160-160 0-6.86 1.18-13.42 2.020-20.060l-256.78-86.1c-16.76-5.62-25.78-23.76-20.16-40.52l20.34-60.68c5.62-16.76 23.76-25.78 40.52-20.16l284.1 95.26c8.14-5.54 16.86-10.24 25.98-14.24v-685.5c0-17.68 14.32-32 32-32h448c17.68 0 32 14.32 32 32v64c-0.020 17.68-14.34 32-32.020 32zM1279.96 352c0 32.36 2.68 17.46-170.1 363.020-35.3 70.58-136.38 70.72-171.74 0-174.24-348.52-170.080-331.68-170.080-363.020h-0.040c0-88.36 114.62-160 256-160s256 71.64 256 160h-0.040zM880 384l144 288 144-288h-288zM341.86 459.020c-35.3 70.58-136.38 70.72-171.74 0-174.24-348.52-170.080-331.68-170.080-363.020h-0.040c0-88.36 114.62-160 256-160s256 71.64 256 160h-0.040c0 32.36 2.68 17.46-170.1 363.020zM112 128l144 288 144-288h-288z" />
<glyph unicode="&#xe966;" glyph-name="balance-scale-right" horiz-adv-x="1280" d="M192 32v-64c0-17.68 14.32-32 32-32h448c17.68 0 32 14.32 32 32v685.5c9.12 4 17.84 8.7 25.98 14.24l284.1-95.26c16.76-5.62 34.9 3.42 40.52 20.16l20.34 60.68c5.62 16.76-3.42 34.9-20.16 40.52l-256.8 86.1c0.84 6.64 2.020 13.2 2.020 20.060 0 88.36-71.64 160-160 160-59.38 0-110.6-32.72-138.22-80.74l-235.86 79.080c-16.76 5.62-34.9-3.42-40.52-20.16l-20.34-60.68c-5.62-16.76 3.42-34.9 20.16-40.52l264-88.52c14.56-42.5 45.92-77.080 86.76-94.94v-589.52h-351.98c-17.68 0-32-14.32-32-32zM0 352c0-88.36 114.62-160 256-160s256 71.64 256 160h-0.040c0 31.34 4.16 14.5-170.1 363.020-35.36 70.72-136.44 70.58-171.74 0-172.76-345.56-170.080-330.66-170.080-363.020h-0.040zM112 384l144 288 144-288h-288zM768.040 96h-0.040c0-88.36 114.62-160 256-160s256 71.64 256 160h-0.040c0 31.34 4.16 14.5-170.1 363.020-35.36 70.72-136.44 70.58-171.74 0-172.76-345.56-170.080-330.66-170.080-363.020zM880 128l144 288 144-288h-288z" />
<glyph unicode="&#xe967;" glyph-name="ballot" horiz-adv-x="768" d="M720 960h-672c-26.6 0-48-21.4-48-48v-928c0-26.6 21.4-48 48-48h672c26.6 0 48 21.4 48 48v928c0 26.6-21.4 48-48 48zM256 160c0-17.6-14.4-32-32-32h-64c-17.6 0-32 14.4-32 32v64c0 17.6 14.4 32 32 32h64c17.6 0 32-14.4 32-32v-64zM256 416c0-17.6-14.4-32-32-32h-64c-17.6 0-32 14.4-32 32v64c0 17.6 14.4 32 32 32h64c17.6 0 32-14.4 32-32v-64zM256 672c0-17.6-14.4-32-32-32h-64c-17.6 0-32 14.4-32 32v64c0 17.6 14.4 32 32 32h64c17.6 0 32-14.4 32-32v-64zM640 176c0-8.8-7.2-16-16-16h-288c-8.8 0-16 7.2-16 16v32c0 8.8 7.2 16 16 16h288c8.8 0 16-7.2 16-16v-32zM640 432c0-8.8-7.2-16-16-16h-288c-8.8 0-16 7.2-16 16v32c0 8.8 7.2 16 16 16h288c8.8 0 16-7.2 16-16v-32zM640 688c0-8.8-7.2-16-16-16h-288c-8.8 0-16 7.2-16 16v32c0 8.8 7.2 16 16 16h288c8.8 0 16-7.2 16-16v-32z" />
<glyph unicode="&#xe968;" glyph-name="ballot-check" horiz-adv-x="768" d="M720 960h-672c-26.6 0-48-21.4-48-48v-928c0-26.6 21.4-48 48-48h672c26.6 0 48 21.4 48 48v928c0 26.6-21.4 48-48 48zM128 736c0 17.6 14.4 32 32 32h64c17.6 0 32-14.4 32-32v-64c0-17.6-14.4-32-32-32h-64c-17.6 0-32 14.4-32 32v64zM131.2 477.2l25.4 25.2c4.2 4.2 11 4.2 15.2 0l41.2-41.6 95.2 94.4c4.2 4.2 11 4.2 15.2 0l25.2-25.4c4.2-4.2 4.2-11 0-15.2l-128.4-127.2c-4.2-4.2-11-4.2-15.2 0l-73.8 74.6c-4.2 4.2-4.2 11 0 15.2zM256 160c0-17.6-14.4-32-32-32h-64c-17.6 0-32 14.4-32 32v64c0 17.6 14.4 32 32 32h64c17.6 0 32-14.4 32-32v-64zM640 176c0-8.8-7.2-16-16-16h-288c-8.8 0-16 7.2-16 16v32c0 8.8 7.2 16 16 16h288c8.8 0 16-7.2 16-16v-32zM640 432c0-8.8-8.6-16-19.2-16h-280.4s58.4 60.4 60.8 64h219.4c10.6 0 19.2-7.2 19.2-16v-32zM640 688c0-8.8-7.2-16-16-16h-288c-8.8 0-16 7.2-16 16v32c0 8.8 7.2 16 16 16h288c8.8 0 16-7.2 16-16v-32z" />
<glyph unicode="&#xe969;" glyph-name="ball-pile" horiz-adv-x="1152" d="M160 256c-88.4 0-160-71.6-160-160s71.6-160 160-160 160 71.6 160 160-71.6 160-160 160zM576 640c88.4 0 160 71.6 160 160s-71.6 160-160 160-160-71.6-160-160 71.6-160 160-160zM512 464c0 88.4-71.6 160-160 160s-160-71.6-160-160 71.6-160 160-160 160 71.6 160 160zM576 256c-88.4 0-160-71.6-160-160s71.6-160 160-160 160 71.6 160 160-71.6 160-160 160zM992 256c-88.4 0-160-71.6-160-160s71.6-160 160-160 160 71.6 160 160-71.6 160-160 160zM960 464c0 88.4-71.6 160-160 160s-160-71.6-160-160 71.6-160 160-160 160 71.6 160 160z" />
<glyph unicode="&#xe96a;" glyph-name="ban" d="M512 944c-273.932 0-496-222.066-496-496s222.068-496 496-496 496 222.068 496 496-222.066 496-496 496zM772.216 708.216c130.896-130.896 140-330.962 41.354-471.274l-512.63 512.626c140.408 98.712 340.452 89.47 471.276-41.352zM251.784 187.784c-130.896 130.896-140 330.962-41.354 471.274l512.63-512.626c-140.406-98.712-340.452-89.472-471.276 41.352z" />
<glyph unicode="&#xe96b;" glyph-name="band-aid" horiz-adv-x="1280" d="M0 640v-384c0-70.6 57.4-128 128-128h192v640h-192c-70.6 0-128-57.4-128-128zM1152 768h-192v-640h192c70.6 0 128 57.4 128 128v384c0 70.6-57.4 128-128 128zM384 128h512v640h-512v-640zM736 592c26.6 0 48-21.4 48-48s-21.4-48-48-48-48 21.4-48 48 21.4 48 48 48zM736 400c26.6 0 48-21.4 48-48s-21.4-48-48-48-48 21.4-48 48 21.4 48 48 48zM544 592c26.6 0 48-21.4 48-48s-21.4-48-48-48-48 21.4-48 48 21.4 48 48 48zM544 400c26.6 0 48-21.4 48-48s-21.4-48-48-48-48 21.4-48 48 21.4 48 48 48z" />
<glyph unicode="&#xe96c;" glyph-name="barcode" d="M0 64v768h36v-768h-36zM53.714 64.546v767.454h18.286v-767.454h-18.286zM108 64.546v767.454h17.714v-767.454h-17.714zM197.714 64.546v767.454h17.714v-767.454h-17.714zM269.714 64.546v767.454h35.428v-767.454h-35.428zM359.428 64.546v767.454h17.714v-767.454h-17.714zM395.428 64.546v767.454h17.714v-767.454h-17.714zM431.428 64.546v767.454h17.714v-767.454h-17.714zM502.858 64.546v767.454h36v-767.454h-36zM592.572 64.546v767.454h36v-767.454h-36zM664.57 64.546v767.454h36.002v-767.454h-36.002zM736.572 64.546v767.454h36.002v-767.454h-36.002zM790.286 64.546v767.454h36v-767.454h-36zM880.572 64.546v767.454h53.714v-767.454h-53.714zM952 64.546v767.454h18.286v-767.454h-18.286zM988 64v768h36v-768h-36z" />
<glyph unicode="&#xe96d;" glyph-name="barcode-alt" horiz-adv-x="1280" d="M1184 960h-1088c-53 0-96-43-96-96v-832c0-53 43-96 96-96h1088c53 0 96 43 96 96v832c0 53-43 96-96 96zM320 144c0-8.8-7.2-16-16-16h-96c-8.8 0-16 7.2-16 16v608c0 8.8 7.2 16 16 16h96c8.8 0 16-7.2 16-16v-608zM448 144c0-8.8-7.2-16-16-16h-32c-8.8 0-16 7.2-16 16v608c0 8.8 7.2 16 16 16h32c8.8 0 16-7.2 16-16v-608zM576 144c0-8.8-7.2-16-16-16h-32c-8.8 0-16 7.2-16 16v608c0 8.8 7.2 16 16 16h32c8.8 0 16-7.2 16-16v-608zM832 144c0-8.8-7.2-16-16-16h-96c-8.8 0-16 7.2-16 16v608c0 8.8 7.2 16 16 16h96c8.8 0 16-7.2 16-16v-608zM1088 144c0-8.8-7.2-16-16-16h-96c-8.8 0-16 7.2-16 16v608c0 8.8 7.2 16 16 16h96c8.8 0 16-7.2 16-16v-608z" />
<glyph unicode="&#xe96e;" glyph-name="barcode-read" horiz-adv-x="1280" d="M368 704h-96c-8.8 0-16-7.2-16-16v-480c0-8.8 7.2-16 16-16h96c8.8 0 16 7.2 16 16v480c0 8.8-7.2 16-16 16zM288 64h-160v160c0 17.6-14.4 32-32 32h-64c-17.6 0-32-14.4-32-32v-256c0-17.6 14.4-32 32-32h256c17.6 0 32 14.4 32 32v64c0 17.6-14.4 32-32 32zM496 704h-32c-8.8 0-16-7.2-16-16v-480c0-8.8 7.2-16 16-16h32c8.8 0 16 7.2 16 16v480c0 8.8-7.2 16-16 16zM32 640h64c17.6 0 32 14.4 32 32v160h160c17.6 0 32 14.4 32 32v64c0 17.6-14.4 32-32 32h-256c-17.6 0-32-14.4-32-32v-256c0-17.6 14.4-32 32-32zM816 704h-96c-8.8 0-16-7.2-16-16v-480c0-8.8 7.2-16 16-16h96c8.8 0 16 7.2 16 16v480c0 8.8-7.2 16-16 16zM624 704h-32c-8.8 0-16-7.2-16-16v-480c0-8.8 7.2-16 16-16h32c8.8 0 16 7.2 16 16v480c0 8.8-7.2 16-16 16zM1248 960h-256c-17.6 0-32-14.4-32-32v-64c0-17.6 14.4-32 32-32h160v-160c0-17.6 14.4-32 32-32h64c17.6 0 32 14.4 32 32v256c0 17.6-14.4 32-32 32zM1248 256h-64c-17.6 0-32-14.4-32-32v-160h-160c-17.6 0-32-14.4-32-32v-64c0-17.6 14.4-32 32-32h256c17.6 0 32 14.4 32 32v256c0 17.6-14.4 32-32 32zM1024 208v480c0 8.8-7.2 16-16 16h-96c-8.8 0-16-7.2-16-16v-480c0-8.8 7.2-16 16-16h96c8.8 0 16 7.2 16 16z" />
<glyph unicode="&#xe96f;" glyph-name="barcode-scan" horiz-adv-x="1280" d="M576 944c0 8.8-7.2 16-16 16h-96c-8.8 0-16-7.2-16-16v-304h128v304zM320 944c0 8.8-7.2 16-16 16h-160c-8.8 0-16-7.2-16-16v-304h192v304zM128-48c0-8.8 7.2-16 16-16h160c8.8 0 16 7.2 16 16v304h-192v-304zM960 944c0 8.8-7.2 16-16 16h-96c-8.8 0-16-7.2-16-16v-304h128v304zM1152 944c0 8.8-7.2 16-16 16h-96c-8.8 0-16-7.2-16-16v-304h128v304zM768 944c0 8.8-7.2 16-16 16h-32c-8.8 0-16-7.2-16-16v-304h64v304zM1024-48c0-8.8 7.2-16 16-16h96c8.8 0 16 7.2 16 16v304h-128v-304zM448-48c0-8.8 7.2-16 16-16h96c8.8 0 16 7.2 16 16v304h-128v-304zM832-48c0-8.8 7.2-16 16-16h96c8.8 0 16 7.2 16 16v304h-128v-304zM704-48c0-8.8 7.2-16 16-16h32c8.8 0 16 7.2 16 16v304h-64v-304zM1264 512h-1248c-8.8 0-16-7.2-16-16v-96c0-8.8 7.2-16 16-16h1248c8.8 0 16 7.2 16 16v96c0 8.8-7.2 16-16 16z" />
<glyph unicode="&#xe970;" glyph-name="bars" horiz-adv-x="896" d="M32 696h832c17.674 0 32 14.326 32 32v80c0 17.674-14.326 32-32 32h-832c-17.674 0-32-14.326-32-32v-80c0-17.674 14.326-32 32-32zM32 376h832c17.674 0 32 14.326 32 32v80c0 17.674-14.326 32-32 32h-832c-17.674 0-32-14.326-32-32v-80c0-17.674 14.326-32 32-32zM32 56h832c17.674 0 32 14.326 32 32v80c0 17.674-14.326 32-32 32h-832c-17.674 0-32-14.326-32-32v-80c0-17.674 14.326-32 32-32z" />
<glyph unicode="&#xe971;" glyph-name="baseball" horiz-adv-x="1280" d="M1259.2 848l-47.8 66.8c-35.2 49.2-103 60-151.6 24.4l-424-312.6c-138.2-101.8-224.8-199.6-274.4-256.6l124.4-173.4c69.2 30.4 187.4 83.6 325.6 185.4l424.2 312.4c48.2 35.6 58.8 104.4 23.6 153.6zM291 93.8l-86.4 120.6c-60-52-94-76.4-112-89.6-38.4 48.2-73.2 18-74.8 16.8-20.6-16.6-24-46.8-7.4-67.4l95.8-120c15.6-19.6 45.6-25 67.4-7.4 5.6 4.4 35 33 4.6 71.2 16.4 11.8 49.2 36.4 112.8 75.8zM245.8 250.4l92-128.2c31.8 18.2 64.6 35 97.6 51l-111.6 155.6c-25.2-27-51-53.2-78-78.4zM989.8 256c-88.2 0-159.6-71.6-159.6-160s71.4-160 159.6-160 159.6 71.6 159.6 160-71.4 160-159.6 160z" />
<glyph unicode="&#xe972;" glyph-name="baseball-ball" horiz-adv-x="992" d="M737 232.2l57.6 27.8c22.2-45.8 52-86.4 88.2-121.8 68 85 109 192.6 109 309.8 0 117-40.8 224.4-108.4 309.2-35.6-34.6-65.2-74.2-87.2-119l-57.4 28.2c25.6 52 60 98 101.6 138-89.2 86.2-210.4 139.6-344.4 139.6-133.8 0-255-53.2-344.2-139.4 41.4-39.8 75.8-85.8 101.4-137.6l-57.4-28.2c-22 44.6-51.4 84.2-87 118.8-68-85-108.8-192.4-108.8-309.6s40.8-224.6 108.8-309.4c36.4 35.4 66.4 76 88.6 122l57.6-27.8c-25.8-53.4-60.6-100.6-103-141.4 89-86.2 210.2-139.4 344-139.4 133.6 0 254.6 53 343.8 139-42.2 40.8-77 87.8-102.8 141.2zM280.4 296.2l-61 19.6c29.8 92.8 25.4 187.6-1.2 268l60.8 20c30-91.2 36-199.8 1.4-307.6zM713 603l60.8-20c-26.4-80.2-31-175-1.2-268l-61-19.6c-34.6 108-28.6 216.6 1.4 307.6z" />
<glyph unicode="&#xe973;" glyph-name="basketball-ball" horiz-adv-x="992" d="M424.6 939.4c-87.6-12.6-172.4-48.2-244.4-107.6l154.8-154.8c55.6 71.6 86.6 162.4 89.6 262.4zM496 516l315.8 315.8c-84.8 70-187.2 107-291 112.2-2.4-127.8-43-244.6-117.4-335.4l92.6-92.6zM112.2 763.8c-59.4-72-95-156.8-107.6-244.4 100 3 191 34 262.4 89.6l-154.8 154.8zM656.6 355.4c90.6 74.2 207.4 114.8 335.4 117.4-5.2 103.8-42.2 206.2-112.2 291l-315.8-315.8 92.6-92.6zM496 380l-315.8-315.8c84.8-69.8 187.2-107 291-112.2 2.6 128 43.2 244.8 117.4 335.4l-92.6 92.6zM879.8 132.2c59.4 72 95 156.8 107.6 244.4-100.2-3.2-191-34.2-262.4-89.6l154.8-154.8zM335.4 540.6c-90.8-74.4-207.6-115.2-335.4-117.4 5.2-103.8 42.2-206.2 112.2-291l315.8 315.8-92.6 92.6zM567.4-43.4c87.6 12.6 172.4 48.2 244.4 107.6l-154.8 154.8c-55.4-71.4-86.4-162.4-89.6-262.4z" />
<glyph unicode="&#xe974;" glyph-name="basketball-hoop" horiz-adv-x="1280" d="M416 640h448v-96h-448v96zM1279.8 286.2c0-45.6-27.2-86.4-69.4-103.6l-208.4-85.8 18 287.2h-61.2l-36.4-448-150.8 143.2-131.6-143.2-131.6 143.2-150.8-143.2-36.4 448h-61.2l18-287.2-208.6 85.6c-42.2 17.4-69.4 58-69.4 103.8l2.4 259.8c1.2 4 135 398 637.6 398s636.2-394 637.6-398c3.2-20.4 2.2 17 2.2-259.8zM413.4 255.2l93.4-87.2 88 88-84.2 84.2-97.2-85zM640 301.2l82.8 82.8h-165.6l82.8-82.8zM685.2 256l88-88 93.4 87.2-97.2 85-84.2-84.2zM385.4 384l5.2-63.8 73 63.8h-78.2zM461.6 122.8l-59.8 55.8 8.6-107 51.2 51.2zM726.4 124.4l-86.4 86.4-86.4-86.4 86.4-80.6 86.4 80.6zM869.6 71.6l8.6 107-59.8-55.8 51.2-51.2zM894.6 384h-78l73-63.8 5 63.8zM1088 528c0 8.8-7.2 16-16 16h-144v160h-576v-160h-144c-8.8 0-16-7.2-16-16v-32c0-8.8 7.2-16 16-16h864c8.8 0 16 7.2 16 16v32z" />
<glyph unicode="&#xe975;" glyph-name="bat" horiz-adv-x="1280" d="M1116.88 700.6c-15.28 35.64-58.5 49.62-91.76 29.66l-201.46-120.86-55.66 222.6-85.34-64h-85.34l-85.32 64-55.66-222.6-201.48 120.88c-33.26 19.96-76.48 5.98-91.76-29.66l-163.1-380.62 99.24 33.080c54.76 18.26 114.96-2.4 146.98-50.42l73.78-110.66 23.64 23.64c55.080 55.080 146.18 48.6 192.92-13.7l103.44-137.94 103.44 137.94c46.74 62.32 137.82 68.78 192.92 13.7l23.64-23.64 73.76 110.66c32.020 48.020 92.22 68.68 146.98 50.42l99.26-33.080-163.12 380.6z" />
<glyph unicode="&#xe976;" glyph-name="bath" d="M976 448h-816v288c0 35.29 28.71 64 64 64 22.702 0 42.664-11.89 54.030-29.76-32.984-50.414-29.374-119.152 13.676-166.070-8.352-9.426-8.042-23.832 0.982-32.856l22.628-22.628c9.372-9.372 24.568-9.372 33.942 0l190.060 190.058c9.372 9.372 9.372 24.568 0 33.942l-22.628 22.628c-9.024 9.024-23.43 9.332-32.856 0.982-35.898 32.938-84.588 42.858-128.356 30.73-28.916 41.64-77.054 68.974-131.478 68.974-88.224 0-160-71.776-160-160v-288h-16c-26.51 0-48-21.49-48-48v-32c0-26.51 21.49-48 48-48h16v-64c0-56.86 24.724-107.938 64-143.094v-64.906c0-26.51 21.49-48 48-48h32c26.51 0 48 21.49 48 48v16h512v-16c0-26.51 21.49-48 48-48h32c26.51 0 48 21.49 48 48v64.906c39.276 35.156 64 86.234 64 143.094v64h16c26.51 0 48 21.49 48 48v32c0 26.51-21.49 48-48 48z" />
<glyph unicode="&#xe977;" glyph-name="battery-bolt" horiz-adv-x="1280" d="M128 256h357.556l-28.346-128h-361.21c-53.020 0-96 42.98-96 96v448c0 53.020 42.98 96 96 96h231.888l-15.326-128h-184.562v-384zM857.556 576h-184.642l55.388 267.178c6.498 26.648-11.892 52.822-37.102 52.822h-217.6c-19.246 0-35.52-15.584-38.062-36.45l-51.196-427.55c-3.070-25.18 14.864-47.55 38.062-47.55h189.922l-73.694-332.764c-5.752-26.572 12.824-51.686 37.354-51.686 13.36 0 26.202 7.654 33.246 20.962l281.556 491.994c14.792 27.944-3.66 63.044-33.232 63.044zM1232 640h-16v32c0 53.020-42.98 96-96 96h-309.24l-19.902-96h66.698c32.224 0 62.466-11.524 86.23-32h144.214v-128h64v-128h-64v-128h-233.652l-73.252-128h338.904c53.020 0 96 42.98 96 96v32h16c26.51 0 48 21.49 48 48v288c0 26.51-21.49 48-48 48z" />
<glyph unicode="&#xe978;" glyph-name="battery-empty" horiz-adv-x="1280" d="M1088 640v-128h64v-128h-64v-128h-960v384h960zM1120 768h-1024c-53.020 0-96-42.98-96-96v-448c0-53.020 42.98-96 96-96h1024c53.020 0 96 42.98 96 96v32h16c26.51 0 48 21.49 48 48v288c0 26.51-21.49 48-48 48h-16v32c0 53.020-42.98 96-96 96z" />
<glyph unicode="&#xe979;" glyph-name="battery-full" horiz-adv-x="1280" d="M1088 640v-128h64v-128h-64v-128h-960v384h960zM1120 768h-1024c-53.020 0-96-42.98-96-96v-448c0-53.020 42.98-96 96-96h1024c53.020 0 96 42.98 96 96v32h16c26.51 0 48 21.49 48 48v288c0 26.51-21.49 48-48 48h-16v32c0 53.020-42.98 96-96 96zM1024 576h-832v-256h832v256z" />
<glyph unicode="&#xe97a;" glyph-name="battery-half" horiz-adv-x="1280" d="M1088 640v-128h64v-128h-64v-128h-960v384h960zM1120 768h-1024c-53.020 0-96-42.98-96-96v-448c0-53.020 42.98-96 96-96h1024c53.020 0 96 42.98 96 96v32h16c26.51 0 48 21.49 48 48v288c0 26.51-21.49 48-48 48h-16v32c0 53.020-42.98 96-96 96zM640 576h-448v-256h448v256z" />
<glyph unicode="&#xe97b;" glyph-name="battery-quarter" horiz-adv-x="1280" d="M1088 640v-128h64v-128h-64v-128h-960v384h960zM1120 768h-1024c-53.020 0-96-42.98-96-96v-448c0-53.020 42.98-96 96-96h1024c53.020 0 96 42.98 96 96v32h16c26.51 0 48 21.49 48 48v288c0 26.51-21.49 48-48 48h-16v32c0 53.020-42.98 96-96 96zM448 576h-256v-256h256v256z" />
<glyph unicode="&#xe97c;" glyph-name="battery-slash" horiz-adv-x="1280" d="M128 256v345.040l-124.26 96c-2.254-7.472-3.612-16.072-3.739-24.971l-0.001-0.069v-448c0-53.019 42.981-96 96-96v0h644l-165.62 128zM1216 224v32h16c26.51 0 48 21.49 48 48v0 288c0 26.51-21.49 48-48 48v0h-16v32c0 53.019-42.981 96-96 96v0h-789.38l-239.68 185.26c-5.367 4.212-12.219 6.755-19.664 6.755-10.245 0-19.366-4.815-25.223-12.305l-0.053-0.070-39.26-50.54c-4.2-5.363-6.736-12.205-6.736-19.639 0-10.236 4.806-19.35 12.286-25.208l0.070-0.053 1176.7-909.46c5.367-4.212 12.219-6.755 19.664-6.755 10.245 0 19.366 4.815 25.223 12.305l0.053 0.070 39.28 50.54c4.2 5.363 6.736 12.205 6.736 19.639 0 10.236-4.806 19.35-12.286 25.208l-0.070 0.053-116.28 89.88c37.858 13.279 64.534 48.673 64.62 90.31v0.010zM1152 384h-64v-128h-94.92l-496.84 384h591.76v-128h64z" />
<glyph unicode="&#xe97d;" glyph-name="battery-three-quarters" horiz-adv-x="1280" d="M1088 640v-128h64v-128h-64v-128h-960v384h960zM1120 768h-1024c-53.020 0-96-42.98-96-96v-448c0-53.020 42.98-96 96-96h1024c53.020 0 96 42.98 96 96v32h16c26.51 0 48 21.49 48 48v288c0 26.51-21.49 48-48 48h-16v32c0 53.020-42.98 96-96 96zM832 576h-640v-256h640v256z" />
<glyph unicode="&#xe97e;" glyph-name="bed" horiz-adv-x="1280" d="M352 448c88.22 0 160 71.78 160 160s-71.78 160-160 160-160-71.78-160-160 71.78-160 160-160zM1056 704h-448c-17.68 0-32-14.32-32-32v-288h-448v416c0 17.68-14.32 32-32 32h-64c-17.68 0-32-14.32-32-32v-704c0-17.68 14.32-32 32-32h64c17.68 0 32 14.32 32 32v96h1024v-96c0-17.68 14.32-32 32-32h64c17.68 0 32 14.32 32 32v384c0 123.72-100.28 224-224 224z" />
<glyph unicode="&#xe97f;" glyph-name="beer" horiz-adv-x="896" d="M736 768h-96v80c0 26.51-21.49 48-48 48h-544c-26.51 0-48-21.49-48-48v-800c0-26.51 21.49-48 48-48h544c26.51 0 48 21.49 48 48v84.22l161.212 71.954c57.58 25.7 94.788 83.050 94.788 146.106v257.72c0 88.224-71.776 160-160 160zM768 350.28c-0.010-12.947-7.698-24.097-18.758-29.14l-0.2-0.082-109.042-48.668v367.61h96c17.644 0 32-14.356 32-32v-257.72zM416 192c-17.672 0-32 14.328-32 32v448c0 17.672 14.328 32 32 32s32-14.328 32-32v-448c0-17.672-14.328-32-32-32zM224 192c-17.672 0-32 14.328-32 32v448c0 17.672 14.328 32 32 32s32-14.328 32-32v-448c0-17.672-14.328-32-32-32z" />
<glyph unicode="&#xe980;" glyph-name="bell" horiz-adv-x="896" d="M448-64c70.64 0 127.94 57.3 127.94 128h-255.88c0-70.7 57.3-128 127.94-128zM878.78 235.42c-38.64 41.52-110.94 103.98-110.94 308.58 0 155.4-108.96 279.8-255.88 310.32v41.68c0 35.34-28.64 64-63.96 64s-63.96-28.66-63.96-64v-41.68c-146.92-30.52-255.88-154.92-255.88-310.32 0-204.6-72.3-267.060-110.94-308.58-12-12.9-17.32-28.32-17.22-43.42 0.22-32.8 25.96-64 64.2-64h767.6c38.24 0 64 31.2 64.2 64 0.1 15.1-5.22 30.54-17.22 43.42z" />
<glyph unicode="&#xe981;" glyph-name="bells" horiz-adv-x="1280" d="M484 452.2c-55.8 153.4 10 321.2 147.4 399.6-17 11.2-35 21-54.8 28.2-138.6 50.2-291.6-21.2-342-159.6-1.6-4.2-29.4-80.8-30.8-85.2-58.4-160.2-132.8-188.6-174.8-210-40.2-20.6-39-81.2 6-97.6l486.6-177.2c16.8 38.4 39 91.2-6.6 216.4-19.6 54-12.4 34.2-31 85.4zM276.2 71.6c55.2-20.2 115 0.6 147.6 46.4l-230.8 84c-4.6-55.8 27.8-110.2 83.2-130.4zM1003.8 7.6c55.2 20.2 87.8 74.4 83.2 130.4l-230.8-84c32.6-45.6 92.4-66.4 147.6-46.4zM1251.2 361.2c-42 21.4-116.6 49.8-174.8 210-1.6 4.4-29.4 81-30.8 85.2-50.6 138.4-203.6 209.8-342 159.4s-209.8-203.4-159.4-341.8c1.6-4.2 29.6-80.8 31.2-85.2 58.4-160.2 19.4-229.8 1-273.2-17.6-41.4 22.4-87.2 67.4-70.8l601.2 218.8c41 15 49.8 75.2 6.2 97.6z" />
<glyph unicode="&#xe982;" glyph-name="bell-school" d="M832 544c0 229.76-186.24 416-416 416s-416-186.24-416-416 186.24-416 416-416 416 186.24 416 416zM256 544c0 88.22 71.78 160 160 160s160-71.78 160-160-71.78-160-160-160-160 71.78-160 160zM512 544c0 53.020-42.98 96-96 96s-96-42.98-96-96 42.98-96 96-96 96 42.98 96 96zM928 320c-53.020 0-96-42.98-96-96 0-32.86 16.54-61.78 41.72-79.1-12.16-28.7-40.62-48.9-73.72-48.9h-96v64.92c-80.34-60.56-179.88-96.92-288-96.92s-207.66 36.36-288 96.92v-160.92c0-35.34 28.66-64 64-64h448c35.34 0 64 28.66 64 64h96c84.4 0 154.96 59.74 171.96 139.12 30.78 16 52.040 47.8 52.040 84.88 0 53.020-42.98 96-96 96z" />
<glyph unicode="&#xe983;" glyph-name="bell-school-slash" horiz-adv-x="1280" d="M544 64c-108.12 0-207.66 36.36-288 96.92v-160.92c0-35.34 28.66-64 64-64h448c35.34 0 64 28.66 64 64v56.94l-75.32 58.22c-64.22-32.18-136.1-51.16-212.68-51.16zM700.38 158.66l-568.48 439.36c-2.3-17.72-3.9-35.66-3.9-54.020 0-229.76 186.24-416 416-416 55.36 0 108.080 11.040 156.38 30.66zM1267.64 43.8l-144.52 111.7c17.78 17.42 28.88 41.64 28.88 68.5 0 53.020-42.98 96-96 96-35.64 0-66.4-19.66-82.96-48.5l-73.62 56.9c38.34 62.84 60.58 136.56 60.58 215.6 0 229.76-186.26 416-416 416-117.080 0-222.12-49-297.6-126.9l-155.46 120.16c-13.96 10.84-34.080 8.34-44.92-5.62l-39.28-50.54c-10.84-13.94-8.34-34.040 5.62-44.9l1176.7-909.46c13.96-10.86 34.060-8.34 44.92 5.62l39.28 50.54c10.84 13.94 8.34 34.040-5.62 44.9zM693.28 487.7l-54.7 42.28c0.68 4.62 1.42 9.22 1.42 14.020 0 53.020-42.98 96-96 96-13.4 0-26.14-2.78-37.74-7.74l-54 41.74c25.96 18.58 57.36 30 91.74 30 88.22 0 160-71.78 160-160 0-19.9-4.040-38.74-10.72-56.3z" />
<glyph unicode="&#xe984;" glyph-name="bell-slash" horiz-adv-x="1280" d="M1267.64 43.8l-181.24 140.1c0.38 2.76 1.6 5.32 1.6 8.12 0.1 15.1-5.22 30.54-17.22 43.42-38.64 41.52-110.94 103.98-110.94 308.58 0 155.4-108.96 279.8-255.88 310.32v41.66c0 35.34-28.64 64-63.96 64s-63.96-28.66-63.96-64v-41.68c-80.66-16.76-149.32-62.14-195.18-125.14l-289.92 224.080c-13.96 10.84-34.080 8.34-44.92-5.62l-39.28-50.54c-10.84-13.94-8.34-34.040 5.62-44.9l1176.7-909.46c13.96-10.86 34.060-8.34 44.92 5.62l39.28 50.54c10.84 13.94 8.34 34.040-5.62 44.9zM314.46 456.92c-17.22-135.92-72.82-186.66-105.24-221.5-12-12.9-17.32-28.32-17.22-43.42 0.22-32.8 25.96-64 64.2-64h483.84l-425.58 328.92zM640-64c70.64 0 127.94 57.3 127.94 128h-255.88c0-70.7 57.3-128 127.94-128z" />
<glyph unicode="&#xe985;" glyph-name="bezier-curve" horiz-adv-x="1280" d="M736 896h-192c-35.34 0-64-28.66-64-64v-192c0-35.34 28.66-64 64-64h192c35.34 0 64 28.66 64 64v192c0 35.34-28.66 64-64 64zM416 784h-169.5c-19 46.88-64.82 80-118.5 80-70.68 0-128-57.3-128-128s57.32-128 128-128c53.68 0 99.5 33.12 118.5 80h159.46c-110.74-65.040-191.72-174.64-219.080-304h98.8c22.6 83.22 73.54 154.42 142.080 203.12-7.4 16.16-11.76 33.98-11.76 52.88v144zM320 320h-192c-35.34 0-64-28.66-64-64v-192c0-35.34 28.66-64 64-64h192c35.34 0 64 28.66 64 64v192c0 35.34-28.66 64-64 64zM1152 864c-53.68 0-99.5-33.12-118.5-80h-169.5v-144c0-18.9-4.38-36.72-11.76-52.88 68.54-48.7 119.48-119.9 142.080-203.12h98.8c-27.36 129.36-108.34 238.96-219.080 304h159.46c19-46.88 64.82-80 118.5-80 70.68 0 128 57.3 128 128s-57.32 128-128 128zM1152 320h-192c-35.34 0-64-28.66-64-64v-192c0-35.34 28.66-64 64-64h192c35.34 0 64 28.66 64 64v192c0 35.34-28.66 64-64 64z" />
<glyph unicode="&#xe986;" glyph-name="bible" horiz-adv-x="896" d="M896 243.2v665.6c0 32-19.2 51.2-51.2 51.2h-652.8c-108.8 0-192-83.2-192-192v-640c0-108.8 83.2-192 192-192h652.8c25.6 0 51.2 19.2 51.2 51.2v32c0 12.8-6.4 25.6-19.2 38.4-6.4 32-6.4 121.6 0 147.2 12.8 6.4 19.2 19.2 19.2 38.4zM288 672c0 17.68 14.32 32 32 32h96v96c0 17.68 14.32 32 32 32h64c17.68 0 32-14.32 32-32v-96h96c17.68 0 32-14.32 32-32v-64c0-17.68-14.32-32-32-32h-96v-224c0-17.68-14.32-32-32-32h-64c-17.68 0-32 14.32-32 32v224h-96c-17.68 0-32 14.32-32 32v64zM761.6 64h-569.6c-38.4 0-64 25.6-64 64s32 64 64 64h569.6v-128z" />
<glyph unicode="&#xe987;" glyph-name="bicycle" horiz-adv-x="1280" d="M1025.018 575.998c-32.746 0.128-64.060-5.91-92.872-16.99l-155.36 250.306c-8.61 13.708-23.648 22.686-40.782 22.686-0.001 0-0.001 0-0.002 0h-128c-17.674 0-32-14.326-32-32v-32c0-17.674 14.326-32 32-32h101.298l29.792-48h-227.088v32c0 17.674-14.326 32-32 32h-174.918c-26.882 0-49.554-21.998-49.072-48.874 0.464-26.088 21.752-47.126 47.99-47.126h97.452l-58.834-95.040c-26.866 9.66-55.808 14.966-85.984 15.040-140.45 0.34-255.814-114.024-256.634-254.472-0.83-142.086 114.106-257.528 256-257.528 119.284 0 219.516 81.586 247.934 192h104.066c17.154 0 32.207 8.999 40.695 22.533l0.117 0.201 171.924 277.726 29.876-48.134c-50.91-46.896-82.77-114.162-82.614-188.874 0.29-137.666 115.798-254.102 253.458-255.438 141.212-1.37 256.362 111.606 258.51 251.992 2.172 141.882-113.052 259.44-254.952 259.992zM373.5 428.456c19.454-21.058 33.346-47.322 39.284-76.456h-86.612l47.328 76.456zM256.004 160c-88.224 0-160 71.776-160 160s71.776 160 160 160c11.738 0 23.172-1.306 34.198-3.718l-91.010-147.018c-19.762-31.918 3.234-73.264 40.812-73.264h162.6c-24.74-56.45-81.124-96-146.6-96zM581.264 352h-71.248c-7.92 63.512-39.112 119.788-84.766 160.052l49.492 79.948h255.094l-148.572-240zM1015.378 160.228c-82.072 4.33-148.098 71.384-151.254 153.51-1.624 42.242 13.266 81.036 38.67 110.526l88.866-143.172c9.32-15.016 29.048-19.632 44.064-10.312l27.188 16.874c15.016 9.32 19.634 29.048 10.312 44.064l-88.936 143.286c11.896 3.172 25.554 4.994 39.638 4.994 0.027 0 0.055 0 0.082 0h-0.004c88.224 0 160-71.776 160-160-0.002-91.080-76.504-164.632-168.626-159.77z" />
<glyph unicode="&#xe988;" glyph-name="binoculars" d="M832 864c0 17.68-14.32 32-32 32h-128c-17.68 0-32-14.32-32-32v-96h192v96zM127.82 640.020c-5.020-187.7-120.9-228.46-127.82-488.020v-88c0-35.34 28.66-64 64-64h192c35.34 0 64 28.66 64 64v320h64v320h-192.32c-35.26 0-62.9-28.74-63.86-63.98zM896.18 640.020c-0.96 35.24-28.6 63.98-63.86 63.98h-192.32v-320h64v-320c0-35.34 28.66-64 64-64h192c35.34 0 64 28.66 64 64v88c-6.92 259.56-122.8 300.32-127.82 488.020zM352 896h-128c-17.68 0-32-14.32-32-32v-96h192v96c0 17.68-14.32 32-32 32zM448 384h128v320h-128v-320z" />
<glyph unicode="&#xe989;" glyph-name="biohazard" horiz-adv-x="1152" d="M575.8 736c37.2 0 72.4-7.6 105.6-19.2 26.6 20.6 47.2 48.6 59 81.4-50.4 21.8-106 34-164.4 34-58.2 0-113.8-12-164.2-33.8 11.8-32.8 32.4-60.8 59-81.4 33 11.4 68 19 105 19zM327.2 82.6c24 23.6 40.8 52.8 49 84.8-65.8 52.8-109.6 130.6-117.8 219.2-17 5.6-34.4 9.2-52.8 9.2-15.2 0-30.4-2-45-6.2 8.2-125.6 71.6-236 166.6-307zM775.6 167.8c8.2-32 25-61.4 49-85 94.8 71 158.2 181.4 166 307-14.4 4-29.4 6-44.4 6-18.4 0-36-3.8-53.2-9.4-8.2-88.4-52-165.8-117.4-218.6zM1002.6 577.8c-35.2 20.8-72.6 33.2-110.6 39.8 12 35.4 20 72.8 20 112.4 0 82-29 161.6-82 224.4-5 6-13.2 7.4-20 3.6-6.6-3.8-9.6-12-7.2-19.4 9-27.6 13.2-52.6 13.2-77 0-135.6-107.6-245.8-240-245.8s-240 110.2-240 245.8c0 24.2 4.4 49.4 13.2 77 2.4 7.4-0.6 15.6-7.2 19.4-6.8 3.8-15 2.4-20-3.6-52.8-62.8-82-142.4-82-224.4 0-39.6 7.8-77 20-112.4-37.8-6.6-75.4-19-110.6-39.8-69.2-41-122-106.6-148.6-184.8-2.6-7.4 0.4-15.4 7-19.6 6.6-4 15-2.6 20 3.2 18.8 21.6 38 38.2 58.4 50.2 114.6 67.8 261.6 27.4 327.8-90s26.8-268-87.8-335.8c-20.4-12.2-44-20.8-71.6-26.8-7.4-1.6-12.8-8.4-12.8-16.2 0.2-8 5.4-14.6 13-16 79.4-15.6 161.2-1.6 230.4 39.4 36 21.2 65.8 49 90.6 80.2 24.8-31.2 54.6-59 90.6-80.2 69.2-41 151-55 230.4-39.4 7.6 1.4 12.8 8 13 16 0 7.8-5.2 14.6-12.8 16.2-27.8 5.8-51.2 14.6-71.6 26.8-114.6 67.8-154 218.4-87.8 335.8s213.2 157.8 327.8 90c20.4-12.2 39.6-28.6 58.4-50.2 5-5.8 13.4-7.2 20-3.2s9.6 12.2 7 19.6c-26.2 78.2-79 144-148.2 184.8zM575.8 319.8c-53 0-96 43-96 96s43 96 96 96 96-43 96-96-43-96-96-96z" />
<glyph unicode="&#xe98a;" glyph-name="birthday-cake" horiz-adv-x="896" d="M896 192c-56.040 0-62.52 64-149 64-86.86 0-93.65-64-149.5-64-55.39 0-62.908 64-149.5 64-85.684 0-94.436-64-149-64-56.296 0-62.404 64-149.5 64-87.094 0-93.306-64-149.5-64v160c0 53 43 96 96 96h32v288h128v-288h128v288h128v-288h128v288h128v-288h32c53 0 96-43 96-96v-160zM896-64h-896v192c86.712 0 93.534 64 149.5 64 55.902 0 62.506-64 149.5-64 85.686 0 94.434 64 149 64 56.296 0 62.402-64 149.5-64 86.714 0 93.534 64 149.5 64 54.976 0 62.504-64 149-64v-192zM192 768c-35.5 0-64 28.5-64 64 0 62 64 46 64 128 24 0 64-59 64-112s-28.5-80-64-80zM448 768c-35.5 0-64 28.5-64 64 0 62 64 46 64 128 24 0 64-59 64-112s-28.5-80-64-80zM704 768c-35.5 0-64 28.5-64 64 0 62 64 46 64 128 24 0 64-59 64-112s-28.5-80-64-80z" />
<glyph unicode="&#xe98b;" glyph-name="blanket" d="M1024 768c0 105.8-86.2 192-192 192h-640c-105.8 0-192-86.2-192-192v-576c0-141.4 114.6-256 256-256h736c17.6 0 32 14.4 32 32v64c0 17.6-14.4 32-32 32h-736c-70.6 0-128 57.4-128 128s57.4 128 128 128h608c17.6 0 32-14.4 32-32s-14.4-32-32-32h-608c-35.4 0-64-28.6-64-64s28.6-64 64-64h598.6c83.6 0 160.2 60 168.6 143.2 0.6 5.8 0.8 496.8 0.8 496.8z" />
<glyph unicode="&#xe98c;" glyph-name="blender" d="M832 192h-512c-70.7 0-128-57.3-128-128v-64c0-35.34 28.66-64 64-64h640c35.34 0 64 28.66 64 64v64c0 70.7-57.3 128-128 128zM576 0c-35.34 0-64 28.66-64 64s28.66 64 64 64 64-28.66 64-64-28.66-64-64-64zM656 832h333.080l34.92 128h-928c-53.020 0-96-42.98-96-96v-320c0-53.020 42.98-96 96-96h206.54l17.46-192h512l34.92 128h-210.92c-8.84 0-16 7.16-16 16v32c0 8.84 7.16 16 16 16h228.36l34.92 128h-263.28c-8.84 0-16 7.16-16 16v32c0 8.84 7.16 16 16 16h280.72l34.92 128h-315.64c-8.84 0-16 7.16-16 16v32c0 8.84 7.16 16 16 16zM128 576v256h139.64l23.28-256h-162.92z" />
<glyph unicode="&#xe98d;" glyph-name="blender-phone" horiz-adv-x="1152" d="M784 832h333.080l34.92 128h-768v-704h576l34.92 128h-210.92c-8.84 0-16 7.16-16 16v32c0 8.84 7.16 16 16 16h228.36l34.92 128h-263.28c-8.84 0-16 7.16-16 16v32c0 8.84 7.16 16 16 16h280.72l34.92 128h-315.64c-8.84 0-16 7.16-16 16v32c0 8.84 7.16 16 16 16zM317.6 289.98l-51.56 126.52c-5.56 13.62-19.6 21.98-34.48 20.52l-90.060-8.84c-34.56 93.88-35.3 199.56 0 295.44l90.060-8.84c14.86-1.46 28.92 6.92 34.48 20.52l51.56 126.52c6.040 14.78 0.4 31.7-13.36 40.14l-78.56 48.2c-28.66 17.58-65.5 10.84-87.78-14.1-185.14-207.2-184-519.1 4.2-724.98 19.74-21.6 58.24-24.96 83.3-9.6l78.82 48.36c13.78 8.44 19.4 25.34 13.38 40.14zM960 192h-576c-70.7 0-128-57.3-128-128v-64c0-35.34 28.66-64 64-64h704c35.34 0 64 28.66 64 64v64c0 70.7-57.3 128-128 128zM672 0c-35.34 0-64 28.66-64 64s28.66 64 64 64 64-28.66 64-64-28.66-64-64-64z" />
<glyph unicode="&#xe98e;" glyph-name="blind" horiz-adv-x="768" d="M760.3-61.674c-2.366-1.458-5.233-2.322-8.302-2.322-5.767 0-10.821 3.051-13.637 7.627l-0.040 0.069-250.66 412.854c10.394 4.192 19.108 10.675 25.827 18.858l0.089 0.112 252.096-415.216c1.459-2.367 2.324-5.235 2.324-8.304 0-5.768-3.052-10.822-7.629-13.638l-0.069-0.040zM285.606 331.324l-65.080-178.97 72.24-176.57c13.386-32.72 50.754-48.384 83.466-35.002 32.714 13.384 48.386 50.752 35.002 83.468l-125.628 307.074zM192 784c48.602 0 88 39.398 88 88s-39.398 88-88 88-88-39.398-88-88 39.398-88 88-88zM501.674 445.744l-240 304c-9.466 11.99-23.5 18.216-37.674 18.224v0.032l-64-0.052c-14.292-0.006-28.434-6.322-37.888-18.48l-122.112-157v-191.388c0-26.91 22.022-49.582 48.928-49.072 26.082 0.496 47.072 21.792 47.072 47.992v159.532l32 41.142v-281.396l-108.146-297.388c-12.080-33.218 5.056-69.938 38.276-82.018 33.204-12.078 69.936 5.048 82.018 38.276l131.852 362.576v214.394l-62.812 79.632c-1.079 1.352-1.732 3.085-1.732 4.971 0 4.419 3.582 8.001 8.001 8.001 2.533 0 4.791-1.177 6.257-3.014l0.012-0.016 204.6-258.434c18.29-23.168 48.736-22.678 67.416-7.93 20.82 16.432 24.318 46.668 7.932 67.416z" />
<glyph unicode="&#xe98f;" glyph-name="blog" d="M344.4 506.4c-29.2 5.8-56.4-17.8-56.4-47.6v-100.8c0-20.4 14.2-36.8 33.4-44 36.4-13.6 62.6-48.8 62.6-90 0-53-43-96-96-96s-96 43-96 96v496c0 26.6-21.4 48-48 48h-96c-26.6 0-48-21.4-48-48v-496c0-179 164.2-320.4 350-281.4 108.8 22.8 196.6 110.8 219.4 219.4 34.8 165.8-74 314.4-225 344.4zM418 960c-18.4 1-34-13.6-34-32v-63.2c0-17 13.2-31 30-31.8 258.8-14 466.8-224 481.8-483 1-16.8 15-30 31.8-30h64.2c18.4 0 33 15.6 32 34-17 326.4-279.4 588.8-605.8 606zM418.6 768c-18.6 1.4-34.6-13.4-34.6-32.2v-64.2c0-16.8 13-30.6 29.6-31.8 153.6-12.6 276-136.4 289.8-290.4 1.6-16.6 15.2-29.4 31.8-29.4h64.4c18.6 0 33.6 16 32.2 34.6-16.8 220.2-193 396.4-413.2 413.4z" />
<glyph unicode="&#xe990;" glyph-name="bold" horiz-adv-x="768" d="M609.586 472.218c67.278 37.074 107.314 108.32 107.314 191.386 0 96.472-52.5 175.252-137.252 208.358-49.372 20.018-97.95 24.038-160.326 24.038h-371.322c-17.674 0-32-14.326-32-32v-66.098c0-17.674 14.326-32 32-32h66.226v-637.060h-66.226c-17.674 0-32-14.326-32-32v-64.842c0-17.674 14.326-32 32-32h391.38c48.406 0 89.668 2.578 133.732 15.168 101.928 30.446 178.888 123.538 178.888 244.804 0 104.336-53.146 183.368-142.414 212.246zM284.434 758.382h134.888c32.588 0 55.072-4.038 75.050-13.434 31.656-16.958 49.812-53.004 49.812-98.892 0-70.058-40.64-113.58-106.058-113.58h-153.692v225.906zM509.718 147.432c-20.28-8.112-45.354-9.814-62.818-9.814h-162.466v258.496h168.734c79.29 0 126.114-50.76 126.114-126.114 0.002-56.85-27.32-104.966-69.564-122.568z" />
<glyph unicode="&#xe991;" glyph-name="bolt" horiz-adv-x="640" d="M592 640h-230.8l85.2 259.6c8 30.4-15 60.4-46.4 60.4h-288c-24 0-44.4-17.8-47.6-41.6l-64-480c-3.8-28.8 18.6-54.4 47.6-54.4h237.4l-92.2-389c-7.2-30.4 16-59 46.6-59 16.8 0 32.8 8.8 41.6 24l352 608c18.6 31.8-4.4 72-41.4 72z" />
<glyph unicode="&#xe992;" glyph-name="bomb" d="M881 783l-104-104 53-53c18.8-18.8 18.8-49.2 0-67.8l-34.8-34.8c23.6-52.2 36.8-110.2 36.8-171.2 0-229.8-186.2-416-416-416s-416 186-416 415.8 186.2 416 416 416c61 0 119-13.2 171.2-36.8l34.8 34.8c18.8 18.8 49.2 18.8 67.8 0l53-53 104 104 34.2-34zM1000 840h-48c-13.2 0-24-10.8-24-24s10.8-24 24-24h48c13.2 0 24 10.8 24 24s-10.8 24-24 24zM880 960c-13.2 0-24-10.8-24-24v-48c0-13.2 10.8-24 24-24s24 10.8 24 24v48c0 13.2-10.8 24-24 24zM947.8 850l34 34c9.4 9.4 9.4 24.6 0 34s-24.6 9.4-34 0l-34-34c-9.4-9.4-9.4-24.6 0-34 9.6-9.4 24.8-9.4 34 0zM812.2 850c9.4-9.4 24.6-9.4 34 0s9.4 24.6 0 34l-34 34c-9.4 9.4-24.6 9.4-34 0s-9.4-24.6 0-34l34-34zM947.8 782c-9.4 9.4-24.6 9.4-34 0s-9.4-24.6 0-34l34-34c9.4-9.4 24.6-9.4 34 0s9.4 24.6 0 34l-34 34zM224 416c0 70.6 57.4 128 128 128 17.6 0 32 14.4 32 32s-14.4 32-32 32c-105.8 0-192-86.2-192-192 0-17.6 14.4-32 32-32s32 14.4 32 32z" />
<glyph unicode="&#xe993;" glyph-name="bone" horiz-adv-x="1280" d="M1197.76 470.88c50.4 25.2 82.24 76.72 82.24 133.060v15.28c0 82.18-66.6 148.78-148.78 148.78-64.040 0-120.88-40.98-141.14-101.72-15.36-46.060-23.2-90.28-76.22-90.28h-547.74c-54.76 0-63.16 51.080-76.22 90.28-20.24 60.74-77.1 101.72-141.12 101.72-82.18 0-148.78-66.6-148.78-148.78v-15.28c0-56.34 31.84-107.86 82.24-133.060 18.86-9.42 18.86-36.34 0-45.76-50.4-25.2-82.24-76.72-82.24-133.060v-15.28c0-82.18 66.6-148.78 148.76-148.78 64.040 0 120.88 40.98 141.14 101.72 15.36 46.060 23.2 90.28 76.22 90.28h547.74c54.76 0 63.16-51.080 76.22-90.28 20.26-60.74 77.12-101.72 141.14-101.72 82.16 0 148.76 66.6 148.76 148.78v15.28c0 56.36-31.84 107.86-82.24 133.060-18.84 9.42-18.84 36.34 0.020 45.76z" />
<glyph unicode="&#xe994;" glyph-name="bone-break" horiz-adv-x="1280" d="M1197.76 662.88c50.4 25.2 82.24 76.72 82.24 133.060v15.28c0 82.18-66.6 148.78-148.76 148.78-64.040 0-120.88-40.98-141.14-101.72l-15.5-46.52c-8.739-25.642-32.614-43.758-60.72-43.76h-209.88l64-128-64-128h209.88c27.54 0 52-17.62 60.72-43.76l15.5-46.52c20.24-60.74 77.1-101.72 141.12-101.72 82.16 0 148.76 66.6 148.76 148.78v15.28c0 56.36-31.84 107.86-82.24 133.060-18.84 9.42-18.84 36.34 0.020 45.76zM640 394.98l-128 53.020-53.020 128-125.94-125.94c-19.48-19.48-49.24-24.3-73.88-11.98l-43.86 21.92c-57.28 28.64-126.44 17.42-171.74-27.86-58.1-58.1-58.1-152.3 0-210.4l10.8-10.8c39.84-39.84 98.78-53.76 152.24-35.94 20 6.66 39.020-12.36 32.36-32.36-17.82-53.46-3.9-112.4 35.94-152.24l10.8-10.8c58.1-58.1 152.3-58.1 210.4 0 45.28 45.28 56.5 114.46 27.86 171.74l-21.92 43.86c-12.32 24.64-7.5 54.4 11.98 73.88l125.98 125.9z" />
</font>
</defs>
</svg>
